&title=MIRINAE
&artist=TAK x Zekk
&first=0
&des=Rlnneko x ラビ星
&lv_5=14
&lv_6=14
&inote_5=(180)
{4},{1},,{4},,,5x/4xh[4:7],
E6,E5,E4,
E3,B1,B7,E6/D6,
3x/5xh[8:7],E4,E5,E6,
E7,5x/B8,{8}B2,5x,{4}E4/D4,
6x/4xh[8:3],E8,E7,4xh[8:5]/E6,
E5,E4,E3,4x/E2/D2,
2x/8xh[4:1],E4,{8}E3,8x,{4}E2,
{8}1x/8x,7,6/4,3,{2}5<8[8:1]/2>5[8:1],
{4}7h[4:1],{8}8,{16}4,4,{8}3h[8:1],5h[8:1],4h[8:1],6,
2V48[4:1],1,2,7,6,6,6/5>7[4:1],4,
{4}5/3,4h[4:1],{8}6,5,6,3,
4,2,7,5,6,4,{4}8v5[8:1]*q4[8:1],
,{8}7,{16}5,5,{8}6h[8:1],4h[8:1],5h[8:1],3,
6,6,8/7,1,2/4,5,3<1[4:1],6,
{4}3,4h[4:1],{8}2-5[8:1],2,{4}2/1,
{8}7/8,7,1/7,7,{4}7-5[8:1]/5-3[8:1],7/5-1[8:1],
2,E3,{8}E3,8h[1:1],{4}E3,
E3,E3,E3,E3,
1/7,E7,{8}E7,1h[1:1],{4}E7,
E7,E7,E7,E7,
{8}2,3,4/5,6,7/8,6,5/4,3,
2/1,2/1,3/4,3/4,5/6,5/6,7/8,7/8,
1,2,7,6,2,3,6,5,
{16}3,4,{8}3,{16}6,5,{8}6,{4}1-4[8:1]/8-5[8:1],8/1,
Cf/B8/B7/B4/B3,{8}6,7,3,2,{4}8h[4:1],
{16}1,4,3,4,2,5,4,5,3,6,4,5,{4}8b-4[8:1],
{32}8b/2b,Cf,{16},,,6,5,6,5,7,7,{8}1h[8:1],8,{16}3,4,
2,5,1,6,8,7,8,7,5-1[8:1],6,5,6,{4}5b<3[4:1],
5/Cf,{8}4h[8:1],5h[8:1],7h[8:1],{16}6,6,{8}2h[8:1],4h[8:1],
3h[8:1],{16}2,2,{8}5h[8:1],7h[8:1],{16}1-5b[8:1],1,8,8,{4}1bw5[8:1],
{32},Cf,{16},,,3,4,3,4,2,2,{8}8h[8:1],1,{16}6,5,
7,4,8,3,1,2,1,2,4-8[8:1],3,4,3,{4}4b>6[4:1],
4/Cf,5,{8}4/3,1/7qq3[8:3],6/5,7/8,
{4},{8}2q6[8:1],1,{2}7p2[8:1]*<3[8:1],
{4}8h[4:1],{16}5,6,4,5,3-8[8:1],4,2,8,{8}3,{16}6,6,
5,7,1,8,2,4,3,6,5,7,1,4,{4}3>8[8:1],
3/4,{8}5h[8:1],4h[8:1],2h[8:1],{16}3,3,{8}7h[8:1],5h[8:1],
6h[8:1],{16}7,7,{8}4h[8:1],2h[8:1],{16}8-4b[8:1],8,1,1,{4}8bw4[8:1],
{32},Cf,{16},,,E7,E8,E1,E2,E3,E4,{8}E5,C,E1f,
{16},2x,8x,1x,7x,5x,6x,3x,4,2,8,5,{4}6<1[8:1],
6/5>2[8:1],5/7-3[8:1],7/1-5[8:1],{8}1/6,8bV62-4[8:3],
{4},4>5[2:1],{2}5h[8:1],
Cf,E1,
{8}E2,{4},{8}B7,{4},{8}B3,B5,
{4}4xh[4:1],{8}E8,E7,E3,E4,E7,E6,
E3,E1,E7,E5,{2}Ch[4:1],
{4}6xh[4:1],5,{8}3xh[8:1],4,{4}3/4,
{8}7h[4:1],8,8,2h[4:1],1,1,8,7,
{4}6>3[8:1],6/1<6[8:1],1/5-1[8:1],5/2>4q6<8b[4:3],
,,,4b,
2/6h[4:1],{16}5,7,4,8,{8}3pp2[8:3],1,{4}3,
{8}7pp6[8:3],5,{4}7,{8}3-8[8:1],5,{4}3/7-3[8:1],
7/1h[4:1],{16}4,3,4,3,{8}7v1[8:1],1<5[8:1],{4}7,
{16}3h[8:1],{8},{16}4h[8:1]/2h[8:1],{8},7/8,{4}6-1[8:1]/1-4[8:1],6/1-5[8:1],
5b,{16}2,8,2,8,{8}1h[8:1],7h[8:1],{16}5,5,{8}6h[8:1],
{16}4,4,{8}5h[8:1],{16}3-1[8:1],3,{8}1-7v5[4:1],{2},{8}6,
7x,8,1,2/3,4x,5,6,
{16}8,7,8,7,1,6,1,6,2,5,3,4,{4}1h[4:1],
C,E6,C/E8,E2,
C/E4,{8}E6,E7,,E3,{4}E2,
7x<4[4:1],{8}4q8[4:1],3,,E2/B2,,1xh[2:1],
,3,4,5,{4}6<1[4:1],{16}1,2,3,4,
{4}5x>2[4:1],{8}2q6[4:1],1,,E8/B8,,7xh[8:3],
,5,{4}4-6[8:1],1>4[4:1],{16}5,6,7,8,
{4}1-6[4:1],{8}5,5,,2,,1h[8:3],
,8,{4}7<1[4:1],,8b,
5/7h[4:5],5,5,5,
5,5,{8}5/7,6,5/4,3,
{4}1/2h[4:1],{8}1,2h[8:7],{4}1,1,
1,1,{8}1/2,8,7/1,6,
5/4,3,4/5,6,5/4,2,4/5,7,
6/5,1,3/4,8,6/5,2x,3/4,7x,
{16}5,6,5,6,4,5,4,5,3,4,2,5,1,6,8,7,
1,2,3,4,8,7,6,5,3,2,1,8,4,5,6,7,
1,8,1,8,1,8,1,8,{32}2x,3,4,5,6,7,8,1,2,3,4,5,6,7,8,1,
{4}2b-4v1[4:1]/6b-8v5[4:1],{2},{4}3b/7b,
2v5[8:1]/6v1[8:1],6b/2b,{16}4/8,3/7,2/6,1/5,8,7,6,5,
{8}4/8b-4[8:1],7,8/1-5[8:1],2,1/5,6,8-4[8:1]/7-4[8:1],1,
{4}7/8,{16}3,2,1,8,{32}4x,3,2,1,8,7,6,5,{4}4/8b,
{8}2/1,{16}3,4,{8}3,2/8,{16}6/5x<8[8:1],4x,{8}3x,5/1,1,
{16}7b,6,5,4,1,2,3,4,6b,7,8,1,3,4,5,6,
8b,7,6,5,3,2,1,8,4b,5,6/2x,7/3x,{4}4bx/8b,
{8}3/4,{16}2,1,{8}2,3/8,{16}6,5,{8}7,{16}1,8,1,8,
2,4,3,7,5,6,1,8,3,4,3,4,{4}2b/5b,
7v4[8:1]/3v8[8:1],3b/7b,{16}5/1,6/2,7/3,8/4,1,2,3,4,
{8}5/1b-5[8:1],2,1/8b-4[8:1],7,8/4b,3,1b-5[8:1]/2b-5[8:1],8,
{4}2b/1b,{16}6,7,8,1,{32}5x,6,7,8,1,2,3,4,{4}5/1b,
{16}2b-5[16:1],{8},{16}6b-1[16:1],{8},3,{4}3b-7[8:1]*-5[8:1],3,
{8}1b/2b,3/8,{16}6,4,{8}5,8b/7b,1/6,{16}3,5,{8}4,
1b/2b,3/7,{16}8,4,6,5,{8}7b/8b-4-8b[4:1],6/2,{4}8bx/1bx,
{8}3,3,4/2,2/4,{16}1,5,1,5,8<7V15[8:3],6,2,4,
{4},{32}D7,A7,D8,A8,D1,A1,D2,A2,{4}D3f,5-8[8:1]/4-1b[8:1],
5b/4b,6/2-5[8:1],{8}1,1<6[8:1],,1/4-8[8:1],
,4/3<6[8:1],,1,{4}8b-5[8:1]*-3[8:1],8,
8/1,3/7-4[8:1],{8}8,8>3[8:1],,8/5-1[8:1],
,5/6>3[8:1],,8,{2}1bw5[8:1],
{4}7/3,5/1-4[8:1],{8}6,6-1[8:1],,6/8<5[8:1],
,8/2-6[8:1],,4,{4}4bq8[8:1],4>1[8:1],
4/7,6/2,{8}8/4,8/4V28[4:1],1/5,4/8-6V42b[8:3],
{4},1,{2}8w4[8:1],
{4}7<4[8:1],7/3v8[8:1],{8}6,6v4-7[4:1],2,6,
,1>4[8:1],,6/1,{2}7bp6[4:1],
{4}2>5[8:1],2/6v1[8:1],{8}3,3v5-2[4:1],7,3,
,8<5[8:1],,3/8,{24}E3,E2,E1,E8,E7,E6,{4}E5f,
{2}7b/2b,{16}6,{8},{16}3,4,{8},{16}1bh[4:1],
,,,7,,,,5,6,{8},{16}1,{4}8,
{1}6x<5b[4:5]/3xqq5[4:5],
,{4}7<4[4:1],
4q8[4:1],{2}B3,
{4}2>5[4:1],5p1[4:1],{2}B6,
{4}7<4[4:1],4V68[4:1],{2}B3,
{4}2>5[4:1],5V31[4:1],{2}B6,
{4}8<5[4:1],5q2[4:1],{2}E4,
{4}1>4[4:1],4p7[4:1],{2}E6,
{4}6h[4:1],5-1[8:11],{2}E8/B7,
B3/E4,{4}5,5,
&inote_6=(180)
{1},,,
{4}
3/4xhb[1:2],2,2,2,2,2,2,2,
1xh[4:7],8,8,8,8,8,8,8,
5hb[1:2]/6,7,7,7,7,7,7,7,
8h[4:2],1V37[4:2],1,6V48[2:1],6,2>1[4:2],2,C,
{4}5h[4:1],{16}4,,6,6,5,,5h[8:1],,6,,7,,18,,2,,3,,45,,6,,6h[8:1],,5,,4,,
{8}3>1[8:1],,4,,7<5[8:1],7,8,,2-4[8:1],2,5-7[8:1],5,1-5[8:1],1,8h[4:1],,2b,,
{16}5,,3,3,4,,4h[8:1],,3,,2,,18,,7,,6,,45,,3,,3h[8:1],,4,,5,,
{8}6<8[8:1],,5,,2>4[8:1],2,1,,6<1[8:1],6,2>5[8:1],2,8-4[8:1],,18,,
{8}2xh[4:6],,5,,6,6,,7,,8,8,,1q5[4:1],,8,,7xh[4:6],,4,,3,3,,2,,1,1,,8-5[4:1],,1,,
{16}2h[8:1],,4,3,4,2,4,,7h[8:1],,5,6,5,7,5,,1h[8:1],,4,2,5,3,6,4,8h[8:1],,5,7,4,6,3,5,
{8}2,12,7,78,6,56,3,34,{16}1,8,2,7,3,6,4,5,{4}4>5[4:1],,
{4}8h[1:1],E1,C,E5,
{16}1,8,1,8,1,8,1,8,1,8,1,8,{4}1-5[8:1]/8-4[8:1],
{4}1b/8b,
{16}
