&title=LIFE
&artist=大前司 × Reku Mochizuki feat. レゾナンスもえこ
&first=0
&des=Tail_R
&lv_5=13+
&inote_5=(147)
{1},
{16}4bV68[4:1],,,,,,,,3b-5b[8:1]*-1b[8:1],,,,,,,,
{8}4bxV28b[2:1]`8bxV64[2:1],,,,,,,,
{8}1h[16:3]/5h[16:3],,,2h[16:3]/6h[16:3],,,3h[16:3]/7h[16:3],,
{16},,4h[16:3]/8h[16:3],,,,3xz7[4:1],7xs3[16:3],2x,6x,,,,,,,
{8}2/4,3,5/4,6,5/7,8,2/1,3,
{16}3x,4,3,2,3,4,3,2,3-7[8:1],,4/5,,{24}A2,E2,E1,A8,,,
{16}6,5,6,5,7h[8:1],,5,,3,4,3,4,2h[8:1],,4,,
{16}7/8,,5,6,4,5,3,4,2,1,3,4,2h[8:1],,C,,
{8}8-4[8:1],4,3,2,1-5[8:1],6-8[8:1],1,6,
{8}3-7[8:1],8,7,6,{16}5^8[8:1],4,6,,3h[8:1],,,,
{16}1-5[8:1],8,2,7,,,6,,7-3[8:1],4,6,5,,,2,2,
{16}4-8[8:1],3,5,4,,6,6,,1xV35[8:1],3x,5xV71b[8:1],7x,,,,,
{12}6bhx[4:1],,,1x-5[8:1],8,8,1x^3[8:1],7,7,1x-4[8:1],6,6,
{12}1x-5[8:1],5,5,1x,6,7,8/4,3,2,1/5-8b[12:1]*p8b[12:1],,,
{12}5bx,,,8x-4[8:1],1,1,8x^6[8:1],2,2,8x-5[8:1],3,3,
{12}8x-4[8:1],4,4,8x,3,2,1/5,6,7,8h[4:1]/4,,,
{12}2,3,4,1/8,3,4,2^4b[32:3]/5^7b[32:3],,,,,,
{12}6/8,5,4,1/7,5,4,7xV53[8:1]`2xv8[8:1],,,,,,
{12}1x,5,5,2,6,6,3,4,1,6,5,8,
{12}1/2,3,3,4/5,6,6,7bqq5[32:5]/8b>5[32:5],,,,,,
{16}6hbx[4:1],,,,,,3,4,2-5[8:1],,5,,6,,7,,
{8}8V62b[4:1],8,,4-8b[8:1],,7,7h[4:1],,
{16}3hb[4:1],,,,,,6,5,7-4[8:1],,4,,3,,2,,
{8}1z5[4:1],1,,7-3[8:1],,4,4h[4:1],,
{8}2b<5[4:1],,,3,2bp5[4:1],,,7,
{8}8bV64b[4:1],,,2,1b-4b[8:1]*-6b[8:1],,1,,
{4}4b>8[4:1],8b<4[4:1],4bw8[8:1],B4f,
{8}2/1,2,3/2,3,3/4,4,4/5,5,
{12}7,5,8,2,4,1,{32}E7,B6,B5,,,,E3,B3,B4,,,,C,,,,
{8}5/6-8[8:1],1-5[8:1]/8,6,1,8V64[8:1],4/6,8,,
{8}5-1[8:1]/4,2-4[8:1]/1,5,2,7V53[8:1],1/8,7,,
{8}4-8[8:1]/3,1-3[8:1]/8,4,1,8V64[8:1],3/4,8,,
{16}5/6,,1/2,,3,4,2,5,3-8[8:1],4,2,1,3,,,,
{8}1-5[8:1]/2,4-2[8:1]/5,1,4,8V64[8:1],3/4,8,,
{8}8-4b[8:1]/1,3-1b[8:1]/4,8,3,7V53b[8:1],1/2,7,,
{16}2,1,2,1,3h[8:1],,7,8,7,8,6h[8:1],,{24}1x,2x,3x,4x/1x,8x,7x,
{1}1bxV35b[4:1]/6bxV42b[4:1],
{1}2bx>2>2>2>2>2>2>2>2b[2:15]/6bh[4:15],
{1},
{1},
{1},
{1}E6/B5/E5/A5f/D6/D5,
{1}E3/B2/E2/A2f/D3/D2,
{1}E8/B8/E1/A8f/D8/D1,
{16}E5/B4/E4/A4f/D5/D4,,,,,,,,E7,,,E6,,,E5,,
{16}3h[4:1]/4,,,,5,,6,5,7h[4:1]/4,,,,8h[4:1],,,,
{16}1h[4:1],,,,2,3,4,5,6/7hx[4:1],,,,8,1,2,3,
{16}4/5xh[4:1],,,,6h[4:1],,,,7h[4:1],,,,8h[4:1],,,,
{16}1h[4:1],,,,2,1,3,1,4q1[32:5],,8,,7x,7hx[16:3],,,
{16}2x-5[8:1],,,,2/5,,6,6,4x-7[8:1],,,,5h[4:1],,,,
{16}6x-1[8:1],,,,1/6,,2,2,8x-3[8:1],,,,1h[4:1],,,,
{16}2x^5[8:1],,,,2/5,,6,6,4x,5,4,5,6,5,6,5,
{16}6x^1[8:1],,,,6/1,,2,2,8x,1,2,3,1,2,3,4,
{12}6xh[384:1],6,6,8hx[384:1],8,8,1hx[384:1],1,1,3hx[384:1],3,3,
{16}2,4,3,5,4,6,5,7,{32}E3,B3,B4,,,,E7,B6,B5,,,,C,,,,
{16}7hxb[4:1]/3xhb[4:1],,,,,,4,5,3-8[8:1],,8,,7,,6,,
{8}5^7p2b[32:9],5,,3^6b[8:1],,8,8h[4:1],,
{16}4hb[4:1],,,,,,5,4,6-1[8:1],,1,,2,,3,,
{8}4p8p4[4:1],4,,7^2[8:1],,3,3h[4:1],,
{8}1bV74[4:1],,,2,1b-6-4[4:1],,,7,
{8}8bqq4[4:1],,,1,1bw5[8:1],,1,,
{4}4bV28[4:1],8bV64[4:1],4b-8[8:1],Cf,
{8}7/8,7,6/7,6,6/5,5,5/4,4,
{12}2,4,1,7,5,8,{32}A3,D4,A4,,,,A6,D6,A5,,,,C,,,,
{8}5/6-1[8:1],2-6[8:1]/1,6,2,8V64[8:1],4/5,8,,
{8}4/5^8[8:1],8/1-5[8:1],5,1,7V53[8:1],1/8,7,,
{8}5-1[8:1]/4,2-5[8:1]/1,5,2,8V64[8:1],3/4,8,,
{16}4/3,,8/7,,6,5,7,4,6-1[8:1],5,7,8,6,,,,
{8}1-5[8:1]/2,4^1[8:1]/5,1,4,8V64[8:1],3/4,8,,
{8}8-4b[8:1]/1,3-8b[8:1]/4,8,3,7V53b[8:1],1/2,7,,
{16}2,1,3,1,2h[8:1],,7,8,6,8,7h[8:1],,{24}2x,3x,4x,8x,7x,6x,
{16}5x/3x,,1/2,,2,4,1,8,2V46b[8:1],1,3,4,2,,,,
{16}5/6,,2/1,,6,5,7,4,8V64b[8:1],1,6,5,8,,,,
{16}4/5,,1/2,,7,8,6,5,7V53b[8:1],1,5,4,7,,,,
{16}3/4,,1/8,,6,5,7,1,8V64b[8:1],2,6,5,8,,,,
{16}3,4,2,4,3,4,1,4,{24}2x,3,4,8,7,6,1,2,3,7,6,5,
{16}2/4x,,1/8,,7,8,6,5,8V64[8:1],1,6,5,8,,,,
{16}8/1,,6/5,,6,4,8,1,7V53[8:1],5,8,1,7,,,,
{16}2,1,3,8,2h[8:1],,6,5,7,4,6h[8:1],,{32}1x,2x,3x,4x,8x,7x,6x,5x,
{1}4xV68[4:1]`8bxV24b[4:1],
