&title=Fragrance
&artist=Tsukasa(Arte Refact)
&first=0
&des=AMH
&des_4=AMH
&des_5=AMH
&lv_4=13.5
&lv_5=14.0
&inote_4=(180){1},{8}5h[1:2],
E4,{4}E3,{8}B4,B2,,B4,
{4}B3,{8}E5,E4,,E3,E2,E1,
3h[8:7],E6,{4}E7,{8}B5,B6,B7,B8,
,4/6,{4}7,{8}8/2,3,4,5,
E7/Ch[4:7],B6,{4}B5,{8}B6,B5,,E7,
{4}B6,{8}E8,E7,E6,B7,{4}B8,
{8}E2/B1/Ch[1:1],E3,{4}E4,{8}B1,B2,B3,B4,
,,8/2,1,8/7,6,5/4,3,
2x,{16}6,5,{8}6,2,{16}6,5,{8}6,{16}3,4,{8}3,
7x,{16}3,4,{8}3,7,{16}3,4,{8}3,{16}6,5,{8}6,
3x,{16}6,5,{8}6,3,{16}6,5,{8}6,{16}3,4,{8}3,
E5,E6,E7,E8,E1,E2,{4}E7/E3,
{8}7x,{16}4,5,{8}4,7,{16}4,5,{8}4,{16}7,5,{8}6,
2x,{16}5,4,{8}5,2,{16}5,4,{8}5,{16}2,4,{8}3,
6x,{16}3,5,{8}4,6,{16}4,5,{8}3,{16}6,5,{8}7,
2x,2,E8,B7/E7,B5,E4/B3,B2,B1/E2f,
7h[4:1],5,4,6h[4:1],4,3,{4}5x,
{8}1h[4:1],4,5,2h[4:1],5,6,{4}3x,
{8}8,4h[8:1],A7,7,3h[8:1],A6,{4}6x,
{8}1,5h[8:1],A2,3,7h[8:1],A4,{4}5x/7x,
{8}8/4h[4:1],7,6,8/3h[4:1],7,6,{4}8x/2x,
{8}1/5h[4:1],2,3,1/6h[4:1],2,3,{4}7x/4x,
{8}6/5h[4:1],7,8,6/4h[4:1],7,8,{4}6x/3x,
{8}4/5h[4:1],3,2,4/6h[4:1],3,2,{16}7x/2x,E7/E3,{8}E4/E6,
8/1h[4:1],7,6,8/2h[4:1],7,6,{4}3x/7x,
{8}7/2h[4:1],6,5,7/1h[4:1],6,5,{4}6x/8x,
{8}2/7h[4:1],3,4,2/8h[4:1],3,4,{4}3x/7x,
{8}2/1h[4:1],3,4,2/8h[4:1],3,4,{4}3x/1x,
{8}8/2h[4:1],7,6,7/1h[4:1],6,5,{4}6x/2x,
{8}1/7h[4:1],2,3,2/8h[4:1],3,4,{4}3x/7x,
{8}5/4h[8:1],6h[8:1],4,5/4h[8:1],6h[8:1],4,{4}6x/4x,
{8}1/8h[8:1],2h[8:1],8,1/8h[8:1],2h[8:1],8,{4}3x/7x,
Ch[4:7],{8}B1,B3,,B5,{4}B7,
{8}B2,B8,B6,B4,B6,B8,{4},Ch[4:7],
{8}B8,B7,,B6,{4}B5,
{8}B4,B3,B2,B1,B8,B7,{4},Ch[4:7],
{8}E1,E2,,E3,{4}E4,
{8}E5,E6,E7,E8,E1,E2,{4},Chf[4:7],
{8}E6,E5,,E4,{4}E3,
{8}E2,E1,E8,E7,E6,E5,{4},5x-8[8:1]/4x-1[8:1],
{16}A4/A5,B3/B6,{8}E2/E8,7x/4x,{16}6,5,{8}6,7,
2x/5x,{16}3,4,{8}3,2,8/1,2/7,6/3,4/5,
{4}6qq8[2:1]/3pp1[2:1],A3/A6,,,{8}2/8,
{16}E3,B3,{4}B4,{8}1/7,{16}E7,B6,{8}B5,B2,
{2}2x-6[8:1]/8x-4[8:1],{8}3/7,{16}6,5,{8}6,2,
6/2,{16}3,4,{8}3,7,6/4,5/3,2/4,1xh[8:7]/E5/B5/B4,
,,,,,,7x,Chf[8:3],
{1},{16}E8,
E1,E2,E3,{4}E4f/7x-3[8:1],4-1[8:1],6,
2/5-2[8:1],{8}3,3,{4}4-8[8:1],{8}7,7,
{4}6-1[8:1],5-2[8:1],7-4[8:1],1,
2-5[8:1],1-6[8:1],3-8[8:1],4b,
{16}E6,E7,{8}E8,8x/2x,2,7/3,7,6/4,4h[8:3],
,,5-8[8:1],5,{4}3,{8}2-7[8:1],2,
{4}6h[1:1],B5,{8},E1,E2,E3,
{4}3h[2:1],5,{16}5b,4,6,3,7,2,8,1,
{4}8x<1[2:3],B1,B2,B3,
B4,B5,B6,B7,
1>8[4:7],B8,B7,B6,
B5,B4,B3,B2f,
E
&inote_5=(180){1},{8}4/5,
5,{4}6,{8}4,3,,5,
{4}6,{8}4,2,,2,3,4,
4/5,6,{4}7,{8}5/3,2,,6/4,
7,1,{4}1h[4:1],{8}E7/B6/A6/E6,E4/B4/B3/D4,,,2,
2,{4}2-7[8:1],{8}8,8-5[8:1],,1,
{4}1-4[8:1],{8}6,6-3[8:1],,2,{4}2,
{8}1,2,{4}3-8[8:1],{8}7,6-4[8:1],,3,
{4}2,{8}6/2,3,4,8/4,7,6,
{16}3,4,3,4,{8}3,{16}6,5,{8}6,2h[4:1],4,8,
{16}7,5,7,5,{8}7,{16}2,4,{8}3,7h[4:1],5,1,
{16}6,2,6,2,{8}6,{16}3,7,{8}3,6h[4:1],5,3,
{16}5,4,5,4,6,3,6,3,7,2,7,2,{4}8b,
{16}1,7,1,7,{8}1,{16}6,2,6,2,{8}6,{16}3,5,{8}3,
{16}6,4,6,4,{8}6,{16}3,7,3,7,{8}3,{16}8,2,{8}8,
{16}1,7,2,7,3,7,4,7,5,7,6,7,7,7,8,7,
1,7,2,7,{8}E7,E6,E5,E4,E3,E2f,
2x/6xh[4:1],3,4,3/7h[4:1],4,5,{16}6,5,6,5,
{8}6h[4:1],4,3,5h[4:1],3,2,{16}4,2,4,2,
{8}5h[4:1],2,3,6h[4:1],3,4,{16}7,5,6,5,
{8}6h[8:3],4,3,2,{16}5/1-5[8:1],2/6,7/3,4/8,{4}5/1b,
{8}3h[4:1],5,6,4h[4:1],6,7,{16}6,5,6,5,
{8}6h[4:1],4,3,5h[4:1],3,2,{16}3,4,3,4,
{8}3h[4:1],1,8,7h[4:1],5,4,{16}6,5,7,4,
{8}8,7/3,6/2,5/1,{16}5/1-5[8:1],2/6,3/7,8/4,{4}1b/5/Cf,
{8}4,6,{16}3,7,3,7,{8}2,6,{16}3,5,3,5,
{8}4,4,3/7,2/6,{24}1/5h[4:1],E2,E3,E4,E5,E6,E7,E8,,{8},6,
6,{16}2,8,2,8,{8}3,3,{16}6,4,6,4,
{8}5,5,{16}3,5,3,5,2,6,2,6,{24}1bx,E2,E3,E4,{12}E5,
{8}8,8,{16}4,6,4,6,{8}3,3,{16}8,2,8,2,
{8}7,6,{16}5,6,7,8,5-1[8:1],4,3,2,{4}5b/C,
{8}3,7,{16}2,8,2,8,{8}3,5,{16}1,7,1,7,
{8}4,6,{24}3x,E3,B2,B1,{12}E1,{24}7x,E7,B6,B5,{12}E5,{24}1x,E1,B8,B7,{12}E7,
{16}6x,5,6,5,{8}7,{16}3x,4,3,4,{8}2,{16}5x,4,{8}5x,
{16}1x,1,8,2,7,3,6x,4,{4}5-2[8:1]b*-8[8:1]b,5x,
{16}7x,8,7,8,{8}6,{16}2x,1,2,1,{8}3,{16}5x,4,{8}6x,
{16}4x,4,5,3,6,2,7x,1,{4}8<4[8:1]*>4[8:1],A8f,
{16}7x,5,6,5,{8}7,{16}2x,4,3,4,{8}2,{16}7x,5,{8}6x,
{16}2x,2,1,3,8,4,7x,5,{4}6<1[8:1]b*>3[8:1]b,6bx,
{16}2x,4,3,4,{8}2,{16}7x,5,6,5,{8}7,{16}2x,1,{8}3x,
{16}5x,5,4,6,3,7,2x,8,{4}1w5[8:1]b,1bx,
{8}7/3h[4:1],7,7,{16}8,7,{8}6/4h[4:1],6,6,{16}2/6h[8:3],3,
{8}4,4,4,3,8-4[8:1],1-5[8:1],{4}8>4[4:3]b,,,
{8},6,7,8,
{2}8h[2:1],{16}E3,E2,E1,E8,E7,E6,E5,E4,
{4}E3/8-3[8:1]*-5[8:1],8,{8}6/2,{16}3,4,{8}3,2/5,
6/1,{16}7,8,{8}7,6/1,{16}2,3,4,5,6,7,8,1,
{4}2/6bx-2[8:1]b,6x,,{8}3b/1b,4bh[8:3]/8bh[8:3],,,,,
{16}7,5,{8}6,3,4,
{16}5/1,2/6,3/7,8/4,{8}5/1,{16}4x/8x,3x/7x,{4}6x-1[8:1]/2x-5[8:1],6x/2x/Cf,
{16}8x,4,7,5,{8}6,{16}3,4,{8}2,B6f/E7/E6,{4}B1/E2f/B2,
{16}8x,1,7,2,{8}6,{16}4,5,{8}3,E7f/B7/B6,{4}B1/B2/E2f,
{16}1x,8,2,7,{8}3,{16}5,4,{8}6,E3f/B3/B2,{4}E8f/B7/B8,
{16}2,1,3,8,4,7,5,6,{8}B4f/E5/E4,E8/B7f/E7,{4}E2f/B1/B2,
{16}7,8,6,1,5,2,4,3,{8}B5f/E5/E6,E2/B2f/E3,{4}E8f/B8/B7,
{16}2,5,4,6,3,5,4,8,1,7,3,6,2,8,3,5,
4,7,1,6,3,5,2,7,E1,E2,E3,E4,E5,E6,E7,E8,
{1}E1f/6-2[4:7],,3-7[4:7],
{4},,3b-7[8:1]b,
E
