&title=太陽曰く燃えよカオス
&artist=後ろから這いより隊G/TVアニメ「這いよれ! ニャル子さん」OPテーマ
&first=0.67
&des=Ragna
&wholebpm=143
&demo_seek=57.6
&demo_len=12.7
&des_5=Ragna
&lv_5=12+
&inote_5=(143){16}
3,4,3,4,1b,,,,6,5,6,5,{8}8b,,
47,12,34,65,78,1b,1b,,
3b-1[8:1]/4b-2[8:1],,,,5b-7[8:1]/6b-8[8:1],,,,
3b-1[8:1]/4b-2[8:1],,,,5b-7[8:1]/6b-8[8:1],,,,
3b-1[8:1]/4b-2[8:1],,,,5b-7[8:1]/6b-8[8:1],,,,
25,78,65,34,12,8b,8b,,
2^4[8:1]/5h[8:1],,5h[8:1],,6h[8:1]/5h[8:1],,6h[8:1]/5h[8:1],,
7^5[8:1]/4h[8:1],,4h[8:1],,3h[8:1]/4h[8:1],,3h[8:1]/4h[8:1],,
25,{16}3,4,3,,45,,6h[8:1]/5h[8:1],,,,6h[8:1]/5h[8:1],,,,
74,,6,5,{8}6,45,3h[8:1]/4h[8:1],,3h[8:1]/4h[8:1],,
5^7[8:1]/2h[8:1],,2h[8:1],,8h[8:1]/3h[8:1],,8h[8:1]/3h[8:1],,
4^2[8:1]/7h[8:1],,7h[8:1],,1h[8:1]/6h[8:1],,1h[8:1]/6h[8:1],,
25,{16}3,4,3,,45,,6h[8:1]/5h[8:1],,,,6h[8:1]/5h[8:1],,,,
74,,6,5,{8}6,45,3h[8:1]/4h[8:1],,3h[8:1]/4h[8:1],,
1>5[4:1],,5qq1[8:3],,8,,7,7h[4:1],
,8,16,25,34,12,38,47,
5bq4[16:7]/6b<3[16:7],,,,,,,,
26,{16}4,5,{8}4,36,17,,8b/3b,,
1b^4[8:1]/5h[8:1],,5h[8:1],,6h[8:1]/5h[8:1],,7h[8:1]/5h[8:1],,
8^5[8:1]/4h[8:1],,4h[8:1],,3h[8:1]/4h[8:1],,2h[8:1]/4h[8:1],,
15,{16}2,4,2,,35,,4h[8:1]/6h[8:1],,,,7h[8:1]/5h[8:1],,,,
84,,7,5,{8}7,64,5h[8:1]/3h[8:1],,2h[8:1]/4h[8:1],,
5^8[8:1]/1h[8:1],,1h[8:1],,1h[8:1]/2h[8:1],,1h[8:1]/3h[8:1],,
4^1[8:1]/8h[8:1],,8h[8:1],,7h[8:1]/8h[8:1],,6h[8:1]/8h[8:1],,
15,{16}2,4,2,,35,,4h[8:1]/6h[8:1],,,,7h[8:1]/5h[8:1],,,,
84,,7,5,{8}7,64,5h[8:1]/3h[8:1],,2h[8:1]/4h[8:1],,
1>5[4:1],,5qq6[32:11],,8,,7,7h[4:3],
,5b,,1b,,{16}5,6,{8}5,74,
8<4[4:1],,4pp3[32:11],,1,,2,2h[4:1],
,{16}4,3,{8}4,25,6h[8:1]/1b,,3h[8:1]/8b,,
1>5[4:1],,5qq6[32:11],,8,,7,7h[4:1],
,5,64,53,42,18,27,34,
2h[4:1]/5,,8b,65,7h[4:1]/4,,1b,45,
2V41[4:1]/7V58[4:1],,,,,1b,1b,,
2b-5[8:1]/6b-1[8:1],,2b/6b,,2b-5[8:1]/6b-1[8:1],,2b/6b,,
8,4,34,5,2b-5[8:1]/6b-1[8:1],,2b/6b,,
4,7,16,2,3-8[8:1]/4-7[8:1],,34,,
1,5h[4:1],,4,8h[8:1]/3b,,1h[8:1]/6b,,
7b-4[8:1]/3b-8[8:1],,7b/3b,,7b-4[8:1]/3b-8[8:1],,7b/3b,,
1,5,65,4,7b-4[8:1]/3b-8[8:1],,7b/3b,,
5,2,38,7,6-1[8:1]/5-2[8:1],,65,,
8bw4[8:1],,8b,,2b/6b,1b,1b,,
2b^5[8:1]/6b^1[8:1],,2b/6b,,2b^5[8:1]/6b^1[8:1],,2b/6b,,
8,{16}4,6,{8}4,35,2b^5[8:1]/6b^1[8:1],,2b/6b,,
8,3,52,6,7-3[8:1]/8-4[8:1],,78,,
5,1h[4:1],,8,7h[8:1]/4b,,2h[8:1]/5b,,
7b^4[8:1]/3b^8[8:1],,7b/3b,,7b^4[8:1]/3b^8[8:1],,7b/3b,,
1,{16}5,3,{8}5,64,7b^4[8:1]/3b^8[8:1],,7b/3b,,
1,6,47,3,2-6[8:1]/1-5[8:1],,21,,
8bw4[8:1],,8b,,2b/6b,1b,1b,,{16}
6,5,6,5,8b,,,,3,4,3,4,{8}1b,,
45,78,65,34,12,8b,8b,,
,,,,,,,,
E
