&title=Infinity Heaven
&artist=HyuN
&first=0
&des_1=AMH
&des_2=AMH
&des_3=AMH
&des_4=AMH
&des_5=AMH
&lv_5=14.0
&des_6=AMH
&des_7=AMH
&des=AMH
&des5=AMH
&inote_5=(80){4},(160){16}2h[16:3],,,4h[16:3],{8},5h[8:3],
,,8h[8:1],5,{16}7h[16:3],,,5h[16:3],{8},4h[8:3],
,,2h[8:1],5,{16}3h[16:3],,,4h[16:3],{8},5h[8:3],
,,7h[8:1],5,{16}7h[16:3],,,6h[16:3],{8},5,
2h[8:1],5h[8:1],3h[8:1],6h[8:1],
{1}4p1[8:5],2h[4:3]/8<5[2:1],4h[4:3]/3qq8[2:1],1bz5[8:5]/7bs3[8:5],
{4}4h[16:3],{8}3/5,4,
{2}3h[4:1]/5h[4:1],{4}5h[16:3],{8}6/4,5,
{2}6h[4:1]/4h[4:1],{4}3h[16:3],{8}2/4,3,
{4}1/5h[4:1],{8}3,3,{16}6h[8:1],,,5/7,{8},8/4,
{2}3h[4:1]/7h[4:1],6h[2:1]/2q5[8:3],
{4},7/4,{2}3h[2:1]/7p4[8:3],
{4},5/2,{1}1bw5[2:1],3h[4:3]/7h[4:3],
{16}2/8,3,4,5,3,4,5,6,
4,5,6,7,5,6,7,8,6,7,8,1,7,8,1,2,
3/8,1/4,2/5,6/3,{4}4/7,{16}4/8,3,2,1,5,4,3,2,
6,5,4,3,7,6,5,4,8,7,6,5,1,8,7,6,
2,1,8,7,{4}6/1,{16}4/8,1,2,3,7,8,1,2,
6,7,8,1,5,6,7,8,4,5,6,7,3,4,5,6,
2,3,4,5,{4}6/2,{16}5/1,4,3,2,6,5,4,3,
7,6,5,4,8,7,6,5,1,8,7,6,2,1,8,7,
4,3,2,1,{4}8/4,{16}7/5,,,4/5,{8}4/5,3h[4:1],
,1,8,7,{16}6/2,,,5,{8}5,4/2h[4:1],
,8,7,6,{16}5/1h[8:3],,,4,{8}4,8-4[4:1],
,7,6,5,{16}3,,,6/2,{8},5/1,
6/2,3/7,{4}4/8,{16}5/7h[4:1],,,4,{8}4q8[4:1],2,
{4}2,1,{16}1/6h[4:1],,,5,{8}5q1[4:1],4,
{4}3,2,{16}2/8h[4:1],,,5,{8}5<8[4:1],4,
{4}3,2,{8}1/7h[2:1],8,6,5,
{32}4,3,2,1,8,7,6,5,{4}4h[4:1],{16}8-4[8:1],,,4qq1[8:3],{4}4pp7[8:3],,,
{16}1-5[8:1],,,5pp8[8:3],{4}5qq2[8:3],,,
{16}8-4[8:1],,,4qq4[8:3],{4}4pp4[8:3],,,
{16}2h[8:1],,,3h[8:1]/7h[8:1],{8},4/8,
8-4[8:1],1-5[8:1],,,{16}6h[8:1],,,5h[8:1]/7h[8:1],{8},4/8,
3/7,6/2,1/5h[4:1],1,{16}3h[8:1],,,4h[8:1]/2h[8:1],{8},5/1,
6/2,3/7,4/8h[4:1],4,{16}5h[8:1],,,4h[8:1]/6h[8:1],{8},7/3,
6/2,3/7,4v2[8:1]/8v6[8:1],2v5[4:1]/6v1[4:1],{4},,3-8[8:1]/7-4[8:1],
3b/7b,{16}1/5,2,3,4,5,6,7,8,
{4}5h[8:1]/1h[8:1],{8}2/6,2/6,{16}7/3,6,5,4,3,2,1,8,
{4}3h[8:1]/7h[8:1],{8}6/2,6/2,{16}1/5,8,7,6,5,4,3,2,
{4}5h[8:1]/1h[8:1],{8}7/3,7/3,{16}8/4,7,6,5,4/8,3,2,1,
{8}4/8,7/3,6/2,5/1,1/5h[8:1],1,6/2h[8:1],6,
3/7h[8:1],3,8/4h[8:1],8,3/7h[8:1],3,6/2h[8:1],6,
1/5h[8:1],1,6/2h[8:1],6,{24}7/3,4,5,6,7,8,1,2,3,4,5,6,
7,8,1,2,3,4,5,6,7,8,1,2,{1}3qq7[2:1]*pp7[2:1],
{8}6b/2h[2:1],,,{16}7,6,
{2}5-8[8:1],{8}3/7h[2:1],,,{16}4,3,
{2}2v5[8:1],4h[8:3]/8h[16:3],
6h[8:3]/2h[16:3],3bqq4[8:3]/7bqq8[8:3],,
{4}1h[2:1],{8}5,6,
{4}7h[2:1],{8}1,2,{4}3h[2:1],{8}4,5,
{4}6h[2:1],{8}8,1,{2}2b<3[2:1],,
{8}2/6h[8:3],,,{16}2,7,
{2}3h[4:1],{8}5,4/6,5,6h[8:1]/4h[16:1],
4,5/3,4,3h[8:1]/5h[16:1],6,5/7,6,5/7h[8:1],
3,4/2,3,4/2h[8:1],{16}5,2,5,2,6,3,6,3,
7,4,7,4,6,5,6,5,7,5,7,5,6,4,6,4,
5,3,5,3,4,2,4,2,{4}5,{16}4,3,2,1,
4,5,6,7,1,2,3,4,7,6,5,4,1,2,3,4,
5,6,7,8,1/5,6,7,8,2,3,4,5,8,7,6,5,
1,2,3,4,7,6,5,4,
{2}1q4[2:1]*p6[2:1],,1b,,,5h[4:1]/4h[4:1],
{16}6,3,6,3,7,4,7,4,
6,3,6,3,5,2,5,2,4,3,5,3,6,3,7,3,
5,4,6,4,7,4,8,4,1,5,8,4,7,3,6,2,
5,1,6,2,7,3,8,4,{2}8<5[4:1]*>3[4:1],
{8},,7/3,2/6,{16}1,5,1,5,2,5,2,5,
3,5,3,5,4,5,4,5,3,6,4,5,4,6,4,6,
4,7,4,7,4,8,4,8,{2}3>8[8:1],
5<8[8:1],1b>8[2:1],
{4}1,3,{16}6,4,6,4,5,3,5,3,
6,4,6,4,7,3,7,3,6,2,6,2,5,3,5,3,
6,2,6,2,7,1,7,1,{2}8b-4[8:1],
{16}5/3,,,4/7,{8},5/2,{16}6/4,,,3/7,{8},2/8,
{16}7/1,,,2/6,{8},3/5,{16}3,5,3,5,2,6,2,6,
1,7,1,7,{4}8,{16}6,4,6,4,7,3,7,3,
8,2,8,2,{8}1,1,2h[16:1]/8h[16:1],2h[16:1]/8h[16:1],7h[16:1]/3h[16:1],3h[16:1]/7h[16:1],
6h[16:1]/4h[16:1],6h[16:1]/4h[16:1],5h[16:1],5h[16:1],{16}4,5,4,5,4,5,4,5,
4,5,3,6,2,7,1,8,
{1}1q4[1:1],8<5[1:1],4q1[1:1],5>6[4:3],
{16}4h[16:3],,,5h[16:3],{8},3h[8:3],{4},6,
{1}4h[4:3]/7q2[8:5],5h[4:3]/3qq8[2:1],7<1[2:1]/1>7[2:1],
{16}8h[16:3],,,4,{8},6/2h[8:3],
,,6,2,{16}6h[16:3],,,4,{8},7/3h[8:3],
,,7,3,{16}7h[16:3],,,4,{8},5/1h[8:3],
,,5,1,{16}7h[16:3],,,6h[16:3],{8},5,
3qq3[2:1],5pp5[2:1],{4},,,,5/4,
{2}2h[8:3]/5h[16:3],3h[8:3]/6h[16:3],(80)7h[1:1]/4p1[4:3],
E
