&first=0.51
&seek=0.00
&wait=0.00
&title=アイドル
&artist=YOASOBI
&des_5=じょーじ
&des_6=じゃんけんぽぽちゃん
&wholebpm=166
&demo_seek=54
&demo_len=19
&lv_5=13
&lv_6=13+
&inote_1=
(166)
{4}
1,1,1,1,1,1,1,1,1,1,1,1,1,1,1,1,1,1,1,1,1,1,1,1,1,1,1,1,1,1,1,1,
1,1,1,1,1,1,1,1,1,1,1,1,1,1,1,1,1,1,1,1,1,1,1,1,1,1,1,1,1,1,1,1,
1,1,1,1,1,1,1,1,1,1,1,1,1,1,1,1,1,1,1,1,1,1,1,1,1,1,1,1,1,1,1,1,
1,1,1,1,1,1,1,1,1,1,1,1,1,1,1,1,1,1,1,1,1,1,1,1,1,1,1,1,1,1,1,1,
E
&inote_5=
(166)
{4}
1x-5[4:1]/3h[4:4],5?^8[4:1],8?V64[4:1],,
,
{8}3x/4hx[4:1],,2,3h[8:2]/5,
,,
{4}
8x-4[4:1]/6h[4:4],4?^1[4:1],1?V35[4:1],,
,
{8}6x/5hx[4:1],,7,6h[8:2]/4,
,,
{8}
3-1[8:1],4,4,,6-8[8:1]/5,,4,,3^1[8:1],,4hx[4:1],,6-8[8:1],5h[8:3],
,,
{8}
1>4[8:1],,4,,8<5[8:1],,5,,1>4[8:1],,5v3[4:1],,3?-1[8:1]/5/6,,8x,,
{8}
8b-6[12:1]*^5[8:1],,8x-2[12:1]*^3[8:1],,8b,,4x,4b-1[8:1]*-7[8:1],,4b,,2x/6x,2b-7[8:1]/6b-3[8:1],,
,,
{8}
1-5[8:3],,,5?-2[8:3],,,
,,
6,6,4,4,{16}7,1,7,1,7b,,,,
{8}2x/4x,1,25,6,{16}3,5,3,5,3,,1-5[8:1]/8,,5V38[4:1],,1,,6h[8:1],,
,,7<4[8:1],,7x,,4,,3,,
{8}8x-4[8:1],8,3-8[8:1],3,4x,5,6,2,35,2,34,1v4[8:1],7^1[8:1],
,,
,
{8}3x/5x,2,54,6,{16}2,1,2,1,2,,{8}38,4-8[8:1],7/8?-3[8:1],6>7[4:1]/4,,6,,
,3,
{8}46,7,65,4,57,8,2,3>8[8:1],4,3,6<1[8:1],5,6,,4h[8:1]/5h[8:1],,
{32}2x/1x,3x,4x,,
,,2x/1x,3x,4x,,
,,2x/1x,3x,4x,,
,,{16},8,,8,,1,,
{32}7x/8x,6x,5x,,
,,7x/8x,6x,5x,,
,,7x/8x,6x,5x,,
,,{16},1,,1,,8,,
{8}
2>5[8:1],2,1,,7<4[8:1],7,8,,3>8[8:1],3,5,6,47,{16}2,2,1,,3,,
{32}7x/1x,6x,5x,,
,,7x/1x,6x,5x,,
,,7x/1x,6x,5x,,
,,{16},7,,8,,1,,
{32}2x/8x,3x,4x,,
,,2x/8x,3x,4x,,
,,2x/8x,3x,4x,,
,,{16},7,8,7,,16,,
{8}
3>8[8:1],3,4,{16},6,{8}6>3[8:1],2,6,{8}1-5[8:1],,18,7,{16}3,3,5h[4:1],,4,,6,,,,
{8}
2>5[8:1],,
,6,6h[4:1],,1b,7<4[8:1],,7,,3,3h[4:1],,8b,,2>5[8:1],,,6,6h[4:1],,1b,,
42,,57,,{16}1,8,1,8,1b,,
,,
{8}
4-2[8:1]/5-1[8:1],,4b,,5-7[8:1]/4-8[8:1],,5b,,
4-2[8:1]/5-1[8:1],,4b,,5-7[8:1]/4-8[8:1],,5b,,
{4}
1V35[4:2]/5,5x,5?V31[4:2]/6,6x,1?-7[4:1]/7,7?>2[8:2]/6x,5,
{8}
4xw8[8:1],,
,,
,42,42,,57,5/7h[4:1],,8,6/1w5[8:1],52,1,,
{8}
3,2,1-5[8:1]/7-5[8:1],,1b/7b,,
3>8[8:1],,37,4h[4:1],,7b-3[8:1],1-6[8:1],7,1,,
5-1[8:1],3,2-6[8:1]/5,,2x/8x-3[8:1]*-5[8:1],,8x,,2x/6x,4hx[4:1]/8x,,5,63,72,
{24}1b-5[8:1]/8b-4[8:1],2x/7x,3x/6x,4x/5x,,,{8}1b/8b,,
{8}7-4[8:1]/3v8[8:1],,7b/3b,,
{8}2>5[8:1],,26,1h[4:1],,6b,5x,48,3hx[4:1]/7x<4[8:1],,7,1,
{8}2-5[8:1]*-5[8:1],5?-1[8:1],1-4[8:1]*-4[8:1],4?-7[8:1],7-2[8:1]*-2[8:1],,5,5w1[8:1],,5,,
73,7v4[8:1]/3v8[8:1],,7b/3b,,1bv4[8:1]/5bv8[8:1],,15,,
{16}6h[16:3],,,5,6,,4,,{8}7,68,1/5pp4[4:1],,3qq4[4:1],,3,,8w4[8:1],,8,,7,65,4,35,2,81,72,36,45,
{8}2,53,8,6-1[8:1]/5-1[8:1],,56,,
{16}3h[16:3],,,4,3,,2h[4:1]/5,,,,6,5,8,,3,5,2>5[8:1],,17,,{8}6,6,1-5[8:1],7-3[8:1],1,7,2,2,4,
{8}8-3[8:1]*-5[8:1],,8,,26,2b/6b-2[8:1],,
,,
{4}3h[4:4],4,4,5,6h[4:2],5,5,46,7h[4:4]/3,4,4,3,3h[4:2],6,5,
{16}3,5,3,5,
{8}3-8[8:1],3,6-2[8:1],6,4-1[8:1],4,7-4[8:1],7,1-5[8:1],1,6-1[8:1],6,2>5[8:1],2,8,8,
{8}
1,1,82,82,37,73,64,46,{16}3,4x,2,7,8x,6,{8}5x,,,
{1},E
&inote_6=
(166)
{8}5b/6b,,{32}1x,8x,7x,6x,5x,4x,3x,2x,{8}8-4[8:1],,8,{16}2,2,1x-6[8:1],,
{8}2,1b,3x-8[8:1],4>6[4:1],3b,4x,,
{8}3b,,
{32}8x,1x,2x,3x,4x,5x,6x,7x,{8}1-5[8:1],,1,{16}7,7,8x-3[8:1],,
{8}7,8b,6x-1[8:1],5<3[4:1],6b,5x,,
{8}4b>1[8:1],5,6,7,8<5[8:1],1,2,3>8[8:1],4,5,6b>3[8:1],7,8,1b,2-5[8:1],,2b/6b,,
{32}8x,1x,2x,3x,4x,5x,6x,7x,{8}1-5[8:1],,1,{16}7,7,8x-3[8:1],,
{8}7,8b,6x-1[8:1],5<3[4:1],6b,5x,,
{8}4bV25[4:1],,5-1[8:1],,8b-4[8:1],,86,7b<4[8:1],,7/1b>4[8:1],,1,8bw4[8:1],,
,,
{4}6x<4[4:3]/2x,,,,{8}1,1,8,8,{16}2,7,3,6,4x/5x,,,,
{8}3,3h[8:4],{16}4x,5x,6x,7x,8x,1x,{8}2>5[8:1],,12,8h[8:3],
{16}7x,6x,5x-1[8:1],4x,3x,,
{8}5,2>5[8:1],,28,7h[8:5],,{16}6x,5x,4x,3x,2x,1x,{8}8<5[8:1],,82,
{16}4x,3x,2x,1x,8x,7x,6x,5x,{8}4,1x/8x,5,2x/8x,
{8}6b/1,6h[8:4],{16}5x,4x,3x,2x,1x,8x,{8}7<4[8:1],,87,1h[8:3],
{16}2x,3x,4x-8[8:1],5x,6x-1[8:1],,
4,,6x,,
3,,8x,,
{8}7b/5b,4,56,7,35,2,34,5,
{48}7x/3x,8x/4x,,
,,,{8},{48}6x/2x,5x/1x,,
,,,{8},
{48}7x/3x,8x/4x,,
,,,{8},1h[8:1]/2h[8:1],,
{16}
7h[8:1]/5h[16:1],,,6h[16:1]/4h[8:1],,,35,,2,1,2,,38,,7,,
{16}
1h[8:1]/6h[16:1],,,7h[8:1]/2h[16:1],,,38,,12,,6,5,6,,74,,
{8}
2>5[8:1],1,2/8h[4:1],,1>4[8:1],8,1/7h[4:1],,8>3[8:1],7,6,5,34,
{16}2h[1:0],7,4h[1:0],,8h[1:0],,
{16}3x,,7,1x/6x,,2,3x/8x,,6,6,5,,47,,3,,
{16}2x/5x,,4,4x/8x,,6,6x/3x,,1h[1:0],,5h[1:0],2,7h[1:0],,
{16}3,3,4-8[8:1],,12,,34,,
,5,5-1[8:1],,78,,56,,
{8}8xq1[4:1],,5x,4x,{16}3x,3,{8}4hx[8:1],5hx[8:1],6x,,
{8}
2qq7[8:3],,
,5,5h[4:1],,2b,
7pp2[8:3],,2,,4,4h[4:1],,7b,,
2qq7[8:3],,
,5,5h[4:1],,2b,,
7,7,2,2,{16}5,4,5,4,5b,,,,
{8}
4<8[4:1]/3,,1b,,5>1[4:1],,8b,,4<8[4:1],,1b,,5>1[4:1],5,8b,,
{4}4hx[4:7],5h[8:1],6h[8:1],7h[8:1],8h[8:1],1h[8:1],2h[8:1],
{8}3h[4:1],1-5[8:1],7-3[8:1],1b,7b,4,4h[8:4],,8,8h[8:1],,26,3-8[8:1]/7-4[8:1],15,37,,
{8}2v5[8:1],5>7[4:1],2x,,6bV84[4:1],,6/1V38[4:1],,1,4hx[4:1],,
{8}8b-4[8:1],4-2[8:1],78,6<1[8:1],,65,4,3v1[8:1]/8-4[8:1],,3/8<5[8:1]*-6[12:1],,8>3[8:1],,87,
{8}5h[8:1],,18,4,
{16}2x,1-4[8:1],4,,8b,1<6[8:1],7,,2b,1,3x-8[8:1]*-5[8:1],,,,3b,,,,
{16}6<1[8:1],,,5,6,,4h[4:1],,2,,8hx[4:1],,6,,{8}1,26,5,34,2,
{8}1v4[8:1]/5v8[8:1],,1v6[8:1]/5v2[8:1],,1x/5x,,
{8}37,4v1[8:1]/8-5[8:1],,48,,26,2/6V84[4:1],,6,,
{8}1h[4:1],,{24}2b,3,4,5,6,7,{8}8h[4:1]/4,,{24}7b,6,5,4,3,2,{8}1h[4:1]/5,,{24}2b,3,4,5,6,7,{8}8h[4:1]/4,,{24}7b,6,5,4,3,2,
{8}1w5[8:1]/5,,1,,3-1[8:1],1,4-8[8:1],8,7<4[8:1],7,4,3,2-5[8:1],1,25,6,
{8}7-4[8:1]/4-8[8:1],,47,,{16}1h[16:3],,,4,3,,25,,{8}6,35,53,{16}2,1,2,,38,,74,,6,,{8}53,2,81,7,46,
{8}3,42,2x-8[8:1]/4x-8[8:1],,2x/4x<7[8:1],,4x,1x-4[8:1]*-6[8:1],,,,
{4}
3-1-7-1-3-5[4:5]/7x,7,6,6,5,6,7,6,
7-5-3-5-7-1[4:5]/3x,3,2,2,1,2,3,
{16}
4,5,4,5,
{8}3V17[4:1],,37,,5<1[4:1],,52,,4V28[4:1],,48,,6<2[4:1],,63,,4,4,5,5,36,63,27,72,{16}1x,4,3,8xw4[8:1],5,6,
{8}8x,
,,,,
{1},E
