&title=ANU
&artist=sasakure.UK VS 穴山大輔
&first=0.054
&des=
&lv_5=15
&des_5=gunmu
&inote_5=
(110){4},{1},{4},,,{64}8b/1b,
7/2,6/3h[32:11],5x,{16}4x<3[0.2727##3.6818],,,,,,,{2}8h[8:3],
{1}4<7[8:5],
{4}Ch[8:7],E6h[8:5],{2}E4h[8:3],
{12}7b/8b,4/5,2/1,3b/4b,6/5,8/1,{32}2b,2,2,2,2,2,2,2,2,2,2,2,2,2,2,2,
(240){8}2h[8:3],,,7h[4:1],{16},,3,4,5,6,7,8,
{8}1h[1:1],,,5,{16},,6,7,{8}8,{16}2,3,
{8}4h[8:3],,,8h[8:5],,1h,{16}7h,6h,5h,4h,
{8}3h[8:5],,,6h,{16},,7h,6h,5h,4h,3h,2h,
{8}1h[8:3],,,5h,{16},,1/5,8/4,7/3,6/2,5,4,
{8}8h[8:3],,,4h,{16},,4/8,5/1,6/2,7/3,8,1,
{8}5h[8:3],,,8h,{16},,5/8,4/7,6/3,5/2,1,8,
{2}7h[8:3],{16}B1,B8,B7,B6,B5,B4,B3,B2,
{4}B1f/6xqq5[4:1],5<1b[4:1],{16}1b,2x,3x,4x,{4}5x,
2qq1b[4:1],1>5[4:1],{16}5b,6x,7x,8x,{4}1x,
8q5[4:1],5<1b[4:1],{16}1b,2x,3x,4x,{4}5x,
4q1b[4:1],1>5[4:1],{16}5b,6x,7x,8x,{4}1x,
3>8[4:1],8q4b[4:1],{16}4b,5,6,7,{4}8x,
8<5b[4:1],5q1[4:1],{16}1b,2,3,4,{4}5x,
2>5[4:1],5p1b[4:1],{16}1b,8,7,6,{4}5xw1b[4:3],
{8},,,,,,,,3/6-2[8:53],
3,4,4,5,5,6,6,
5,5,4,4,3,3,2,2,
1,1,8,8,7,7,8,8,
1,1,2,2,3,4,5,4,
5,6,4,6,7,5,6,5,
7,6,5,4,5,7,6-2b[8:1],5,
{4}6b,{8}B1,B3,{32},,,,E8,B7,{16}B6,{32},,,,E4,B4,{16}B5,
{8}8/1,8,1,1,5,4,6,6,
3,3,{16}6,7,8,1,8/4,7/3,6/2,1/5,{8}8/4x,4x,
2,2,6,6,1,8,3,3,
{16}7,6,5,4,5/1,6/2,7/3,8/4,{8}1x/5,1x,4,4,
7,7,2,2,6,6h[8:1],{16}1,8,7,6,
5,4/5,3/6,2/7,{8}1x/8,1x,5,5,3,3,
6,6,2/1,2,8/7,7,8/1,8/1,
4,6,2,8,3,5,1,{16}1/5,2/6,
{8}3/7,7x,3,5,2,8,{4}1-6[4:1],
6-3[4:1],3-8[4:1],8-4[4:1],4-8[4:1],
{8},,,,3,7,4,8,
2,5,3,{16}3/7,2/6,{8}1/5x,5x,3,7,
1,6,{4}3<6[4:1],6<1[4:1],1>2-4[4:1],
4-8[4:1],8-6>5[4:1],{8},,,,2,
1,8,7,3,4,7,8,
1,2,6,5,1>4[8:1],8,{4}1<6[8:1],
1-4[8:1],1-6[8:1],1-3<4[8:1],1-7<6[8:1],
1,{16}1,2,3,4,{8}6/5,5,4,3,
7,8,3,4,5,6,2,1,
7,8,2h[8:1],{16}8b,7,{8}6,2h[8:1],{16}7b,6,{8}5,
1h[8:1],{16}6b,5,{8}4,7h[8:1],{16}1b,2,{8}3,8h[4:1],{16}3b,4,
{8}5h[8:3],,,1h[8:3],{16},,,,5,4/8,3/7,2/6,
1/5s1[4:1],8,7,6,{4}5,{8}6,5,4,5,
6,7,{16}1,2,3,4,5,6,7,8,1/7,2/6,{8}3/5,
8h[8:3],,,4h[8:3],{16},,,,8,7/3,6/2,5/1,
4/8z4[4:1],3,2,1,{4}8,{8}2,8,1,8,
7,8,{16}4,3,2,1,8,7,6,5,4/6,3/7,{8}2/8,
5h[8:3],,,1h[8:3],{16},,,,5,6/2,7/3,8/4,
5/1s5[4:1],2,3,4,{4}5/1,{8}7,8,1,2/7,
1,8,{16}7,6,5,4,3,2,1,8,7/1,6/2,{8}5/3,
4h[8:3],,,8h[8:3],{16},,,,4,3/7,2/6,1/5,
4,3,2,1,{12}8/4,7/3,6/2,{8}5/1,8/4,{4}7/3,
(200){2}6/2q7[2:1],4q1[2:1],
8q5[2:1],C,
{8}4q5[2:1],,,6q3[2:1],,,,2<7[2:1],
,,,,,,,,{1}2>7[8:5]/4z8[8:5],
1-4[8:5]/4<6[8:5],
{8}7-4[8:1],2,7,1-5[8:1],8,1,6-1[8:1],3,
6,4-8[0.3##0.15],7,4/Cf,(151){16}6,5,{8}6,7/4,{16}1,7,
2,8,{8}3,1/4,{16}5,2,6,3,{8}7,4/8,{16}6,5,
1,2,{8}3b/8b,{4}Cf/B8/B3,{12}7/8,{24}6x,5,{12}6,4/3,{24}2x,1,{12}2,
1/8,{24}7x,6,{12}7,5/4,{24}2x,3,{12}2,8/1,{24}7,6,{12}5,8/1,{24}2,3,{12}4,
{16}E8,B2,B5,B8,B1/E2,B3/E4,B7/E7,B4/E5,(156){8}2-6[8:1],6V41[16:3],2,{16}1,8,
7,6,{8}5,{16}1/4,4/1,,,{8}6-2[8:1],2V47[16:3],6,{16}8,1,
2,3,{8}4b/Cf,,,8-4[8:1],4V61[16:3],8,{16}1,2,
3,4,{8}5,{4}1/8,{16}6,8,7,1,8,2,1,3,
4,2,5,3,6,4,7,5,(161){8}6-2[8:1],2V85[16:3],6,{16}5,4,
3,2,{8}1,{16}5/8,8/5,,,{8}2-6[8:1],6V83[16:3],2,{16}4,5,
6,7,{8}8b/Cf,,,4-8[8:1],8V25[16:3],4,{16}5,6,
7,8,{8}1,{4}5/4,{16}2,4,3,5,4,6,5,7,
8,6,1,7,2,8,3,1h[#0.09316254],(166){8}5<8[8:1],8>5[32:7],5,{16}5,6,
7,8,{8}1,{16}5/1,5/1,,,{8}1>4[8:1],4<1[32:7],1,{16}1,2,
3,4,{8}5,{16}1/5,1/5,,,(171){8}5<8[8:1],8>5[32:7],5,{16}5,6,
7,8,{8}1,{16}5/1,1/5,,,(176)5,1,4,8,3,7,2,6,
1,5,2,6,3,7,4,8,(220){2}5bw1b[9##0.2727],
{16},,,,,,,,,,,,,Ch[16:107],,,,,,,,,,,,B6h[16:95],
,,,,,,,,,,,B3h[16:83],
,,,,,,,,,,,E4h[16:71],
,,,,,,,,,,,E6h[16:59],,,,,,,,,,,{2}B5h[1:3],
{4},B4h[4:9],,,E7h[2:3],
,,E3h[4:3],
,,{2}B7/B8/B1/B2,
{16},,,,,,,,1,8,1,8,1,8,1,8,
1,8,2,7,1,8,2,7,1,8,1,8,1,8,1,8,
2,3,4/8,7,6/1,2,3/7,6,5/2,3,4/8,7,6/1,2,{8}3/7b,
,,,,(240){4}4/2-7[8:1],{8}5,5,
{4}8/6-3[8:1],1,4/2q7[8:1],5,
8/6>3[8:1],{8}1,1,{16}8,7,6,5,4,3,2,1,
8/4,3,2,1,8,7,6,5,4/1,2,3,4,5,6,7,8,
1/5,6,7,8,1,2,3,4,{4}5/6<1[8:1],2,
4/3>8[8:1],{8}7,7,{4}4/5-1[8:1],{8}2,2,
{4}5/4-8[8:1],7,{16}5,4,3,2,1,8,7,6,
5/1,4,3,2,1,8,7,6,5/1,2,3,4,5/1,6,7,8,
1/5,2,3,4,5/1,6,7,8,{4}1/5<8[8:1],{8}2,2,
{4}4>1[8:1],7,5p8[8:1],B7/B6,
4q1[8:1],B2/B3,{16}5,4,3,2,1/5,8/4,7/3,6/2,
5/1,8,7,6,5/1,4/8,3/7,2/6,1/5,4,3,2,1/5,8/4,7/3,6/2,
{2}5h[4:1]/1h[4:1],{16}5/4,6,7,8,1/2,8,7,6,
5/4,3,2,1,8/7,1,2,3,{4}4/5h[4:1],7h[4:1],
1h[4:1],3h[4:1],{16}5,4,5,4,6,3,6,3,
7,2,7,2,8,1,8,1,8,7,6,5,7,6,5,4,
1,2,3,4,2,3,4,5,{4}7-2[8:1],{8}4,4,
{4}1/3-6[8:1],8,5/7p2[8:1],4,
1/3<6[8:1],{8}8,8,{16}2,3,4,5,4,3,2,1,
7,6,5,4,5,6,7,8,3,2,1,8,1,2,3,4,
6,7,8,1,8,7,6,5,{4}4/3>8[8:1],7,
5/6<1[8:1],{8}2,2,{4}5/4-8[8:1],{8}7,7,
{4}4/5-1[8:1],2,{16}4,3,2,1,8/4,5,6,7,
8/4,3,2,1,8/4,5,6,7,8,1,2,3,4/8,7,6,5,
4/8,1,2,3,4/8,7,6,5,{8}4/3,4/5,5/6,6/7,
{16}2q6[8:1],1,2,1,{4}2,{8}7/8,8/1,1/2,2/3,
{16}6q2[8:1],5,6,5,{4}6,{8}3/4,2/1,8/7,6/5,
{16}1,8,1,8,{4}1,{8}7/8,6/5,4/3,2/1,
{16}5,4,5,4,{4}5,{16}8/1,7,6,5,4/3,5,6,7,
8/1,2,3,4,5/6,4,3,2,1/8,7,6,5,4/3,5,6,7,
8/1,2,3,4,5/6,4,3,2,1/8,7,6,5,7,6,5,4,
2,3,4,5,1,2,3,4,{32}8b,7,6,5,4,3,2,1,8,7,6,5,4,3,2,1,
8/4b,5,6,7,8,1,2,3,4,5,6,7,8,1,2,3,{8}4b/8h[8:3],,,4h[8:3],
{16},,,,8,3/7,2/6,1/5,8/4s8[4:1],7,6,5,{4}4,
{8}5,4,3,4,5,6,{16}8,1,2,3,
4,5,6,7,8/6,1/5,{8}2/4,5h[8:3],,,1h[8:3],
{16},,,,5,6/2,7/3,8/4,1/5s1[4:1],2,3,4,{4}5,
{8}3,5,4,5,6,5,{16}1,2,3,4,
5,6,7,8,1/7,2/6,{8}3/5,8h[8:3],,,4h[8:3],
{16},,,,8,7/3,6/2,5/1,8/4z8[4:1],3,2,1,{4}8/4,
{8}6,5,4,3/6,4,5,{16}6,7,8,1,
2,3,4,5,6/4,7/3,{8}8/2,1h[8:3],,,5h[8:3],
{16},,,,1s5[4:1],2/6,3/7,4/8,{2}1/5,
{8}3,4,5,6/3,5,4,{16}3,2,1,8,
7,6,5,4,3/5,2/6,{8}1/7,{16}6,5,4,3,2,1,8,7,
{4}6h[4:1],{16}2,3,4,5,6,7,8,1,{4}2h[4:1],
{16}6,5,4,3,2/1,1/2,8/3,7/4,{4}6h[4:1],{16}2,3,4,5,
6/7,7/6,8/5,1/4,{4}2h[4:1],{16}6,5,4,3,2/3,1/4,8/5,7/6,
7,8,1,2,3/2,4/1,5/8,6/7,6,5,4,3,2/3,1/4,8/5,7/6,
7,8,1,2,3/2,4/1,5/8,6/7,6,5,6,5,7,4,7,4,
8,3,8,3,1,2,1,2,{32}1x,8x,7x,6x,8x,7x,6x,5x,2x,3x,4x,5x,3x,4x,5x,6x,
8,7,6,5,4,3,2,1,8/4,3,2,1,8,7,6,5,4x,3x,5x,6x,4x,3x,5x,6x,3x,2x,6x,7x,3x,2x,6x,7x,
2x,1x,7x,8x,2x,1x,7x,8x,3x<4-2-5-1-6-8<7-3[8:7],2x,6x,7x,3x,2x,6x,7x,{1},{32}7b,
8b/6b,5b/1b,4b/2b,{8}3b,
E
