&title=breath of stella
&artist=相宮零
&first=0.11
&des=Exenmeter
&lv_5=14
&inote_5=(176)
{1},
{8}1-3[2:1],,,,3-5[2:1],,,,
{8}7,,6,6v8[4:1],,,,,
{8}4-2[2:1],,,,2-8[2:1],,,,
{8}6,,7,7v4[4:1],,,,,
{8}1-5[2:1],,,,7,,,,
{8}6-2[2:1],,,,3,,,,
{8}8-6[4:1],,6V48[16:12],6,,3,,3h[16:6],
{8},,,,1-5[8:1],,1>8[4:10],,
{1}C1f,
{1},
{8}B1,,B2,,B3,C1,B6,,
{16}4/5,,2,1,2,,3/4,,7,8,7,,4b/6b,,,,
{8}C1hf[2:1],,,,,,2-5[8:1],5-1[8:1],
{8}2,,6v4[8:1],4-7[8:1],6,,3,2,
{8}1>3[8:1],8,7,6V47[8:1],5,4,3,3,
{16}1/2,,4,5,4,,7/8,,5,4,5,,2b/8b,,,,
{8},,,,1,,1pp3[4:3],1,
{4},B7,B6,B5,
{8},,2,2h[8:1],8,8h[8:1],1,1h[8:1],
{8}6<1[4:1],6,1-5[4:1],,5>1[4:1],,1<5[4:1],,
{8},,,,4,,4qq2[4:3],4,
{4},E6,E7,E8,
{8},,6h[8:1],3,7h[8:1],4,8h[8:1],4,
{16}5-3[8:1],,5,,,,6-2[8:1],,,,1q5[8:1]*V35[8:1],,,,1,,
{8},,5,6,7h[8:1]/1,2,6h[8:1]/3qq7[4:3],3,
{8}E7,,E6,,E5,,E4,,
{8}3/5,6,3/4,7,2-5[8:1],2,8-4[8:1],8,
{16}2x-5[8:1],,,,2,,7x-3[8:1],,,,7,,1xv6[8:1]*v4[8:1],,,,
{8}1,,C1,,2h[8:1]/8,7,3h[8:1]/6qq2[4:3],6,
{8}E2,,E1,,E8,,E7,,
{8}4/6,3,5/6,2,7-4[8:1],7,1-5[8:1],1,
{8}8x-4[8:1],,8,2x-6[8:1],,2,7x-4[8:1],,
{8}7,,1>4[8:1],,1<6[8:1],,1-5[8:1],,
{8}1,,7V53[4:1],,7h[4:1],,,,
{8}8<5[8:1],,8>3[8:1],,8-4[8:1],,8,,
{8}2-5[8:1],,2,7-4[8:1],,7,1w5[8:1],,
{8}1,,2/8,,8h[2:1],6,5,4,
{8}3-7[8:1],,3,5-1[8:1],,5,,3,
{8}2-4[8:1],5,2-8[8:1],7,2-6[8:1],6,2,,
{32}E1,E8,E7,E6,E5,E4,E3,E2,8x-4[8:1],7x,6x,5x,4x,3x,2x,1x,8bx/C1f,,,,,,,,,,,,,,,,
{8}5/3,2,8-4[8:1],7/1,8-2[8:1]*-6[8:1],,8,,
{8}5h[4:1],,3-8[8:1],8V62[6:1],,,,,
{8}1/7,4,1-5[8:1],2/8,1<6[8:1]*>4[8:1],,1,,
{8}4h[4:1],,8v5[8:1],5V73[6:1],,,,,
{16}2/5,,3,4,3-8[8:1],,5,,3/4,,,,6x,,,,
{16}2/5,,3,4,3v8[8:1],,5,,3/4,,,,7x,,,,
{8}3>8[8:1],,3,7<4[8:1],,7/8pp4[8:3],,8h[8:3],
{8},,,E6,E7,E8,E1,,
{16}3/8,,1,2,1<6[8:1]*>4[8:1],2,,,1w5[8:1],,,,1,,,,
{8}8-6[8:1],6-2-4[6:1],,1hx[3:1],,,,,
{16}1/6,,8,7,8-2[8:1]*-6[8:1],7,,,8v5[8:1]*v3[8:1],,,,8,,,,
{8}1>4[4:1],,4q8[4:1]*<7[4:1],4,,,,,
{16}3/8,,1,2,1-6[8:1],,3,,1/2,,,,4x,,,,
{16}3/8,,1,2,1v6[8:1],,3,,1/2,,,,4x,,,,
{8}2>5[8:1],,2,6-1[8:1],,6,4,,
{8}8<4[4:1],,4>8[4:1],,8V64[4:1],,4V28-6-4[16:28]*V28-6-4[16:28],,
{1}C1f,
{1},
{8}2b/5b,7,1,8,,1b/3b,2,7,
{16}1x,5,1,5,2,6,2,6,{32}3x-7[8:1]b,4,5,6,7,8,1,2,3x,,,,,,,,
{8}1b-4[8:1]/5,3hx[1:0],1-6[8:1]/5,7hx[1:0],1>4[8:1]/5,3hx[1:0],1<6[8:1]/5,7hx[1:0],
{8}1-5[8:1]/5,,1>6[4:1]b,,C1f,,,,
{8}8b-5[8:1]/4,6hx[1:0],8-3[8:1]/4,2hx[1:0],8<5[8:1]/4,6hx[1:0],8>3[8:1]/4,2hx[1:0],
{8}8-4[8:1]/4,,8<3[4:1]b,,C1f,,,,
{16}1/5,,,,2/6-2[8:1],3,4,5,6/8b/B2f,,,,A7/E8/B7,,,,
{16}4/8,,,,7/3-7[8:1],6,5,4,3/1b/B7f,,,,A2/B2/E2,,,,
{8}7b-4[8:1],,7,1b-5[8:1],,1bpp5>6[16:12]b,,B3/E4f/B4,
{1},
{8}3b-8[8:1],2,3/4v6[8:1],5,1-4[8:1]/4,2,1/7v4[8:1],6,
{8}7V13[8:1]*-2[8:1],,7v4<7[4:1]b,,B4/E5f/B5,,,,
{8}1b<6[8:1],8,1/2v5[8:1],3,1-6[8:1]/2,8,1/2>5[8:1],3,
{8}7V13[8:1]*-2[8:1],,7v4>1[4:1]b,,B4f/E4/E5,,,,
{16}2/5,,{24}3,4,3,4-8[8:1],,,,,,4x,A8f,,,,,{32}B7,C1,B3,A3,,,,,
{16}2,,1,,8-4[8:1],,,,{24}8x,A4f,,,,,{32}A3,B3,C1,B7,,,,,
{8}5<1[6:1],,5,4V26[6:1],,4/8-4[8:1],,8xpp3[16:9]`4xpp7[16:9]b,
{1},
{16}C1f/1b,,,,2x,6,2,6,3,7,3,7,4,8,4,8,
{16}4xb,3,2,1,4b,3,2,1,8b,7,6,5,1b,2,3,4,
{16}8bx,5x,8,5,8,4,8,4,8b,3,8,3,8,2,8,2,
{32}8xb,7,6,5,4,3,2,1,8bx,7,6,5,4,3,2,1,8x/4b,5,6,7,8,1,2,3,4bx-8[8:1],5,6,7,8,1,2,3,
{8}4x/8b/C1f,,,,5-3[8:1],6,6,,
{8}7-5[8:1],8,8,,1-7[8:1],2,2,,
{8}2-4[8:1],4-6[8:1],2,7,8-3[8:1],3-7[8:1],8,,
{16}4b,,2,8,2,,1b/3,,8b<5[8:1]/2>5[8:1],,1b,,{32}2b/8b,E8/E3,E7/E4,E6/E5,,,,,
{1}1x<1[16:31],
{1},
{1}1V75[1:1],
{8}E1,E2,E3,E4,,B5,B7,,
{1}3-6[16:12],
{1}7pp4[16:9],
{32}5hx[1:1],,,,6,,,,7,,,,,8,,,,1,,,,,2,,,,,3,,,,,
{32}4,,,,,5<5[66#16:11],,,,,,,,,6,,,,,,,,,,5x,4,3,C1f,,,,,
{1},
{1},
E
