&title=illusion
&artist=緑黄色社会
&first=0
&des=Desuwa.
&des_5=
&lv_5=13
&inote_5=(170){4},,,,5xh[4:3],
B7/E7,,E3/B3,
4xh[4:3],B2/E3,,E7/B6,
5xh[4:3],B7/E7,,E3/B3,
4xh[4:3],B2/E3,,8,
6/5xh[4:1],{8}7,3x,{4}5-1[8:1],1,
3qq2[4:1],{8}7,6,{4}5h[4:1],1x,
3/4xh[4:1],{8}2,6x,{4}4-8[8:1],8,
5-7[8:1],{8}2,3,{4}4h[4:1],8x,
3/4xh[4:1],{8}2,6x,{4}4x-8[8:1],8,
4pp5[4:1],{8}1,2,{4}3h[4:1],4-8[8:1],
6,{8}5,1x/4xh[4:1],,2,{4}3bxqq5b[2:1]`5bxpp3[2:1],
{8},,,,,E8,E1,E2,
{4}3x/4-8[8:1],1,6x/5-1[8:1],{8}8,7-2[8:1],
,3-6[8:1],,8x,,7,5,3x,
{4}6x/5-1[8:1],8,3x/4-8[8:1],{8}1,1>4[8:1],
,1<6[8:1],,1,,2,3,4,
{4}6/5h[4:1],{8}7,3x,{4}5-1[8:1],{8}3,3-5[8:1],
,2-6[8:1],,8,,8,4,3,
{4}3/4h[4:1],{8}2,6x,{4}4-8[8:1],{8}6,5-1[8:1],
,2-4[8:1],,8x,,7,3,4,
{4}6/5h[4:1],{8}7,3x,{4}5-1[8:1],{8}2,3qq2[16:3],
,3pp4[16:3],,3x,,1,1,2,
{4}5/3h[4:1],{8}7,5/8h[4:1],,1bq7b[8:5],{4}2b>6[2:1],
{8},,,,,8,8,1,
{16}4xh[8:1],,,3xh[8:1],,,{8}2x<7[8:1],,4,5,5,
{16}8xh[8:1],,,7xh[8:1],,,{8}6xqq4b[16:3],,1,1,1,
{16}5/3xh[4:1],,,7x,{8}7x,4,{4}6V47[4:1],{8}3,2-5[8:1],
,6,,8x/5x,{2}8x-6[8:1]/5x-1[8:1],
{8}2,3,4x>1[8:1],5,{4}6x,1x-3[8:1]/4x-8[8:1],
{8},,7x,6,5x<8[8:1],4,{4}3,
1p8[8:5],{48}B7,C,{24}B3,,,,,,,,,,,,,,,,,{4}E7,
C,{2}E3/5-8[8:1]*-2[8:1],
{4}3b/7b,{8}8-6[8:1],8,4-2[8:1],4,1<6[8:1],1,
3,3,5pp4[4:1],5,{4}4>7[4:1],E1/B1/B8,
{8}2-4[8:1],4-1[8:1],2,8,7-4[8:1]*-5[8:1],7,,,2,
2,6,{16}4-1[8:1]*-7[8:1],5,{8}4,,,6/2,
,6,7-5[8:1],7,3-1[8:1],3,4,4,
1,8/2-6[8:1],,2x>5[8:1]/6x<1[8:1],,6xqq7[8:3],,3bv8[8:1],
,,,8x,1x,{16}7,5,{8}6,{16}2,2,
{8}4,{16}7,8,{8}7,{16}2q6[8:1]*v5[8:1],2,{8}1,,,4b/8b,
,6/2,3,4/5,6v7[8:1],6,2v1[8:1],2,
,8z4[16:3],,,,3,3,1/5V74[4:1],
,4,3,2,2pp4[16:3],1<4b[16:3],,Cf,
,,7/1,7/1,5-8[8:1],2-5[8:1],,2x,
,6,5-7[8:1],4,1-3[8:1],1,8,1v7[8:1],
,2V46[16:3],,7h[8:3],{16},,,,,4,5,3,
{4}4>5[4:5],2xh[8:1],{8},3xh[8:1],,,{2}4xh[8:1],
{8}4x,4x,5x<4b[8:13],5x,
,1xh[4:1],,,,3xh[4:1],,,,5xh[4:1],
,,,7x,{4}7,
5-7[8:1],4,{8}5-7[8:1],5,{4}4,
{8}5-7[8:1],6,4,3,1,1-3[8:1],,4,
,1-7[8:1],1,2,,1-3[8:1],,1-5[8:1],
,4V68[4:1],,8V24[4:1],,4,,5,
{4}4-2[8:1],5,{8}4-2[8:1],4,{4}5,
{8}4-2[8:1],3,5,6,8,1,7,8<5[8:1],
,8-3[8:1],,4-7[8:1],,2,,1>4b[8:1],
,1-6b[8:1],,5-1b[8:1],,7pp6>1[8:5],,E5f/B5/B4,
,,,,,8,7,6/5,
,4,4,4/3,,2,8,8,
{4}7-5[8:1]/5-8[8:1],7pp3b[8:3],{8},,,E5/B4,
,E8/B7/B8,,B4/B3,{4}E4,5/4,
2-4[8:1]/4-8[8:1],2qq6b[8:3],{8},,,E5/B5,
,E2/B2/B1,,B5/B6,{4}E6,4/5,
{8}8/4,{16}6,5,{8}6,{16}4,5,{8}4,{16}7,5,{8}6,{16}2,5,
4,7,4,5,2,5,4,6,4,5,3,5,4,7,4,5,
{4}1>8[4:7],E4,,B3,
,B2,,E2,
{8},E8/E7,{4}E4/E3,{8}B7,B3,4x/5x,3x/6xp1[16:3],
,,2,2,2,{32}2,3,4,5,6,7,8,1,{8}2b/6b,
,8,7-5[8:1],6,7/3-1[8:1],2,4/3,4,
1,4bx>1[8:1],,5/4bx-7[8:1],,3/4bxqq5<1b[48:25],,2xh[4:1],
,,2,3,5/4,{16}6,5,{8}7,5x-8[8:1]/8x-6[8:1],
,5/8,,2x-4[8:1],4x-1[8:1],2,{16}8x,7x,{8}6bx,
,3/6,3,1/4,3v2[8:1],4,7v8[8:1],6,
{48},,,,,,1<6[8:1],2x,3x,4x,,,,,,,,,{8}1b,,5xh[8:1]/1xh[8:1],{48},,,,,,6/2x,3x/7x,{12}8bx/4bV25[4:1],
{24},,,{8}6,6,6,7qq5[8:1],5<2b[4:1],7,B3f/B2f/E3f,
,3,3,5/4,7,6-4[8:1],,4v7[8:1],
,1,1,1,3/2,4/3,5/4,6/5,
7h[8:1],{16}1,1,8,5,6,2,4,1,{24}7,3,7,3,7,3,7,3,7,
{4}3<8[16:3],2,{8}1,3<6[8:1],4,3,
,7p3[8:1],8,7,1,2v1[8:1],6,7qq4[8:3],
,3,3,3,2x-4[8:1],2x-8[8:1],{4}2x-6[8:1],
{8},,4/5,{16}6,6,{8}5,8-5[8:1]*-3[8:1],,8,
,1,2-4[8:1],3,2/6-8[8:1],7,5/6,5,
8,5bx<8[8:1],,4/5bx-2[8:1],,6/5bxp4>8b[48:25],,7xh[4:1],
,,7,6,4/5,{16}3,4,{8}2,1x-5[8:1]/5x-7[8:1],
,5/1,,8x-4[8:1],4x-2[8:1],8,,1bx,
,6/3,6,8/5,6v7[8:1],5,2v1[8:1],3,
{48},,,,,,8>3[8:1],7x,6x,5x,,,,,,,,,{8}8,,4xh[8:1]/8xh[8:1],{48},,,,,,3/7x,6x/2x,{12}1x/5V74[4:1],
{24},,,{8}3,3,3,2pp4[8:1],4>7b[4:1],2,B6f/B7f/E7f,
,6,6,4/5,2,1-4b[8:1]*-6b[8:1],,1,
{16},,3,4,3,4,2,5,2,5,1,6,1,6,8,8,
{8}7>5[2:1],,,,,,,2,
{4}3x/4-8[8:1],1,6x/5-1[8:1],{8}8,7-2[8:1],
,3-6[8:1],,8x,,7,5,3x,
{4}6x/5-1[8:1],8,3x/4-8[8:1],{8}1,1>4[8:1],
,1<6[8:1],,1,,2,3,4,
{4}6/5h[4:1],{8}7,3x,{4}5-1[8:1],{8}2,4h[4:3],
,,,,,,6,5,
{4}3/4h[4:1],{8}2,6x,{4}4-8[8:1],{8}6,5v4[8:1],
E
