&title=累乗のカルマ
&artist=めと (Metomate)
&first=0
&des=Dororo
&lv_5=13+
&inote_5=(178)
{1},
{16},,,,,,,,,,B3,B6,C,,,,
{16}2xh[4:1]/8xh[4:1],,,,,,3>7[2:1]/7h[4:1],,,,,,,,6,,
{16},,4,,,,2,,,,8,,8,,1h[4:1]/7h[4:1],,
{16},,,,,,3h[4:1]/5,,,,E3,E2,E1,E8,E7,,
{16},,4,5,4,,6,,7/8x,,1/8x-4[8:1],,12,,3b,,
{16},,6,5,6,,47,,2,4,3,7,5,6,1,,
{16},,3,4,3,,25,,37,,16,,28,37,4b>6[8:9]/6b,,
{16},,,,,,,,,,,,,,,,
{16},,,,,,,,5b,,5h[4:1]/1-5b[8:1],,,,Cf,,
{16},,6-4[8:1],,7,,7,,,,2-8[8:1],,3,,3,,
{16},,6-4[8:1],,7,,7,,,,2V48[4:1],,35,,2b/6b,,
{16},,,,61,,7,,8,,1,,2,,3-6[8:1],,
{16},,8-3[8:1],,,,5-8[8:1],,,,4,,3,,2^7[8:1],,
{16},,6^3[8:1],,,,1,,,,2,,4,,1xh[4:1]/5b,,
{16},,7,,5,,4b/8xh[4:1],,,,2,,4,,5x^8[8:1]/2b^5[8:1],,
{16},,5qq4[4:1],,,,,,8,,7,,6,,5xh[4:1]/8b,,
{16},,2,,5,,1b/4xh[4:1],,,,7,,4,,1b/5x,,
{16},,3,,24,,6,,57,,1,,28,,3/7h[4:1],,
{16},,3,4,2,,6,5,7,,1-5[8:1],8,2,7,1,,
{16},,6,,75,,3,,42,,8,,71,,6/2h[4:1],,
{16},,4,3,4,,15,,2,4,3,5,4,6,5bpp4[8:6],,
{16},,7h[8:6],,,,,,,,,,,,,,
{16},,,,E2,E1,E8,,,,4-1[8:1]/5,,5,,3h[4:1],,
{16},,,,24,,,,,,5,,4,,5,,
{16},,2h[8:1],,4h[8:1],,3h[8:1],,5h[8:1],,4-1[8:1],,5,,3h[4:1],,
{16},,,,24,,,,,,5,,4,,5,,
{16},,65,,,,2h[8:1],,5h[8:1],,4-1[8:1],,5,,3h[4:1],,
{16},,,,24,,,,,,65,,4,,5,,
{16},,24,,5,,3,,,,57,,4,,8b,,
{16},,2-6[8:1],,35,,26,,,,7-3[8:1],,64,,73,,
{16},,2,4,3,,24,,,,7,5,6,,5/7-1[8:1],,
{16},,3-5[8:1],,2,,6-2[8:1],,7,,3,,4,,1x^6[8:1]/5x,,
{16},,13,,2,,8x^3[8:1]/4x,,,,86,,7,,4xh[4:1]/8x-4[8:1],,
{16},,8,,1,,24,,35,,46,,57,,8bw4[8:1],,
{16},,8b,,,,6b/2b,,3,4,3,5,2,6,1h[4:1],,
{16},,E7,,3,,E3,,5,,E5,,7,,8xh[4:1]/2,,
{16},,4,8,2xb/6x,,,,18,,4-1[8:1]/5-8[8:1],,,,E5f/C/E1,,
{16},,27,,27,,27,,3,4,2,6,5,7,3^8[8:1],,
{16},,{24}7,6,5,{16}4b,,,,15,,3/7-3[8:1],,,,8bV24-6v8[4:9]/7V13-5s1[4:9]`Cf,,
{16},,,,,,,,,,,,,,,,
{16},,,,,,,,,,,,,,,,
{16},,,,,,,,,,87,,6,6,2b^5[8:1],,
{16},,27,,8,,1bq6[6:1],,,,16,,7,,8bh[8:3]/E5f,,
{16},,,,5,,,,5,,,,5,,6x,,
{16}5,,,,5,,6x,,5,,,,7,7,3x-5[8:1],,
{16},,1,,1,,1,,1b,4,1,3,1,2,8x<2[8:3]*p2[8:3],,
{16},,,,,,,,,,1,1,1,,2h[4:1]/8,,
{16},,3,2,4,3,5,4,6,5,7<1[4:1],,1,,3h[8:3]/7,,
{16},,,,8x,,2,1,2,,4,,56,,7h[4:1]/1,,
{16},,6,7,5,6,4,5,3,4,2-6[8:1],,8,,26,,
{16},,7h[8:1],,5,6,1,,2h[8:1],,4,3,8,,2h[4:1]/6,,
{16},,1,2,8,3,7,4,6,5,7-3[8:1],,3,,1^6[8:1]*^4[8:1]/7,,
{16},,1,,,,7,8,7,,5,,46,,3/7h[4:1],,
{16},,8,7,8,7,5,6,4,5,{32}3,2,1,8,7,6,5,4,{16}3b-8[8:1]/7x-4[8:1],,
{16},,7b/3x,,,,1b^6[8:1]/5x,,,,4b>6[4:1]/1x,,,,E1f,,
{16},,,,,,35,,26,,1>7[4:1]/7,,,,Cf,,
{16},,,,,,12,,38,,4>6[4:1]/7,,56,,E5f,,
{16},,,,,,1,8,1,,7,2,6,3,5b-8[8:1],,
{16},,5/6h[8:1],,,,1/5b-8[8:1],,,,5/6h[8:1],,,,{24}1b/7b,26,35,
{16}4,,,,2,6,3,6,4,6,5,6,7,6,{32}8b,1,2,3,
{16}4,,,,7,3,6,3,5,3,4,3,2,3,{32}1b,8,7,6,
{16}5,,,,3,4,2,5,1^6[16:3],,7^4[16:3],,5^2[16:3],,3b,,
{16},,8bw4[8:1],,,,8b`Cf,,,,2-5[8:1]/6-1[8:1],,1,,26,,
{16},,3,4,2,,2,,,,6,5,7,,7,6,
{16}8,,8^3[8:1],,,,2xh[4:1],,,,4,3,4,,1s5[4:1]/5h[4:1],,
{16},,,,8,,8h[4:1],,,,3x,2,8,7,1x-5[8:1]/6xh[4:1],,
{16},,,,8,,8,,4,6,3,7,2,8,1b,,
{16},,6,5,7,,7,,,,3,4,2,,2b-6[8:1],,
{16},,8b-3[8:1]/2,,,,5bh[4:1]/8,,,,{24}4x,3,2,1,8,7,{16}6/2b,,
{16},,35,,26,,17,,,,6,5,6,,7b^4[8:1]/3,,
{16},,{24}3,2,1,{16}8,,8xb^5b[8:1],,,,{24}4b,3b,2b,{16}1b,,1x>8[8:7]*<2[8:7],,
{16},,,,,,,,,,,,,,,,
{16},,,,,,28,28,3xb/7xb,,,,4,,2-5[8:1]/6,,
{16},,8,,8,,3,4,2^5[8:1],,8-4[8:1],,2,,8,,
{16},,1/7h[4:1],,{32}D6,A5,D5,A4,{16}D4,,,,8,2,8,2,3/7-4[8:1],,
{16},,1,,1,,6,5,7^4[8:1],,1^4[8:1],,7,,1b-5[8:1],,
{16},,7-3[8:1]/1,,6,,7b/4,,,,2,4,2,4,1q6[6:1]/5q2[6:1],,
{16},,1b/5b,,,,,,5x,1,4,8,3,7,2b/6,,
{16},,{24}7xqq5[8:1],6,5,{16}1,,8b/7x,,,,{24}2xpp4[8:1],3,4,{16}8,,1b/2x,,
{16},,7h[8:1],,5h[8:1],,1h[8:1],,3h[8:1],,7h[8:1],,5h[8:1],,2<5[4:1],,
{16},,5,,3,,1xh[4:1],,,,8,,72,,6b/3b,,
{16},,2,1,2h[8:1],,4h[8:1],,6h[8:1],,8h[8:1],,2,,7<2[4:1]/3,,
{16},,75,,1,,8bh[4:1],,,,1x^4b[8:1],8,7,6,5xb<4[8:5],,
{16},,3xqq4[8:3],,,,,,,,,,,,5h[8:3]/6b,,
{16},,,,4,5,6,,3,,7,,1,,{48}2b/7b>3-5[8:14],3qq6[8:14]/6,45,{16},
{16},,,,,,,,,,,,,,,,
{16},,,,,,,,,,,,,,,,
{16}7s3[8:1],,,,,,,,,,,,,,,,
{16},,,,,,,,,,,,,,,,
E
