&title=ヒステリックナイトガール (Awakening)
&artist=PSYQUI/SUCH(pv:雷厲風行_shin)
&first=-0.06
&des=~25级生~
&des_5=ペースト絵
&des_6=~25级生~
&lv_5=13+
&lv_6=13+
&inote_5=(160){4},,{2}3<6[2:1],
8,3v6[2:1],
7,3q6[2:1],
6,{4}5h[8:1]/6h[8:1],5h[8:1]/4h[8:1],
{16}2/4,,,5/7,,,{8}8/1,{2}2-4<5-1[8:5]/7z3[8:5],
{4},,2-6[8:1],2/8V64[4:1],
{8}8/3,2,{4}D1/E1/B8/B1,{8}3/4bx,{16}2,4,{8}2,1/5,
{16}2,4,3,4,{8}1,2/8,6/5,{16}7,5,{8}7,8/4,
{16}7,5,6,5,{8}8,7/1,3/4,{16}2,4,{8}2,1/5,
{16}2,4,3,4,{8}1-5[8:1],2/8,1,7,4,2,
{4}8w4[8:1],8,{8}2,{16}1,4,{8}1,2/8,
{16}6,5,7,5,{8}6,8/4,6,{16}8,5,{8}8,7/1,
{16}3,4,2,4,{8}3,1/5,{4}1h[8:1]/2h[8:1],3h[8:1]/4h[8:1],
8h[8:1]/2h[8:1],3h[8:1]/4h[8:1],{8}5,7,1>7[4:1],8,
{4}1/6,C,{8}8/2,3,4/2,3,
2/6,3,{16}4,2,4,3,{8}5-1[8:1],5,2,2<3[4:1],
1,,,8,{4}6h[8:1]/5xh[8:1],4/3xh[8:1],
{8}4,{16}3,4,{4}2>1[4:3],2/8h[8:1],7h[8:1],
5h[8:1],4h[8:1],{8}1/7,6,5/7,6,
7/3,6,{16}5,7,5,6,{8}4-8[8:1],4,7,7>6[4:1],
8,,,1,5/3h[16:1],5/3h[16:1],4/6h[16:1],4/6h[16:1],
{16}5,5,,7,,7<8[16:9],,,{4}7/1h[8:1],3h[8:1],
{2}5w1[8:1],{8}7x/8xh[8:1],6,2x/1xh[8:1],3,
3/4,5,6,7/1,2-5V38[2:1],2,8,{16}7,7,
,,{8}7,,1,2/4,5/3,{4}6/4h[4:1],
{16}6,6,3,3,4,2,{8}5,{4}6h[4:1]/1>5[4:1],{8}1,{16}6x,7x,
{8}8xh[8:1],{16}4x,3x,{4}2xh[8:1]/6-1[8:1],3x<6[8:1],8x/3,
{8}7/1,6/2,3,3/4,5-1[8:1],5,2>1[8:3],2,
8,,,4h[8:3],,2,{16}3,4,,,6,
5,,3/4,,5/6,,,{4}4h[8:1]/2h[8:1],5h[8:1]/7h[8:1],
1>7[4:1],1/8,{2}8h[2:1],
B6/B5,1h[2:1],
B3/B4,5h[2:1],
B1/B2,4h[2:1],
{8}E8/B8,,,B1/B8/B7/B6/B5/B4/B3/B2/Ch[2:5],,E1,,B8/B7/B6/B5/B4/B3/B2,
,B8/B7,,B2/B3/B4/B5/B6,,B6,,B2/B3/B4/B5,
,B5,,B3/B4/B2,8,8,1,1,
{16}3x,3x,4x,4x,1x,1x,{8}8bxz4[4:3],,,,,{2}8z4b[8:1],
{4}3bh[8:1]/4bxh[8:1],2bxh[8:1]/1bh[8:1],
4bxh[8:1]/3bh[8:1],2bh[8:1]/8bxh[8:1],3bh[8:1]/5bxh[8:1],2bxh[8:1]/1bh[8:1],
3bh[8:1]/8bxh[8:1],2bxh[8:1]/1bh[8:1],8bxh[8:1]/3<6b[8:1],7bh[8:1],
1bh[8:1]/6>3b[8:1],2bh[8:1],D1/B1/B8/E1f,Cf,
E5f/B5/B4/D5,1b/8,5bh[8:1]/2-6b[8:1],6bh[8:1],
4bh[8:1]/7-3b[8:1],3bh[8:1],2/5,{16}3/4,,,3,
{8}4,1/6,{4}4-7b[8:1]/3-7b[8:1],3/4,5-2b[8:1]/6-2b[8:1],
6/5,8/2,{8}B6/A6,B5/A5,B4/A4,B3/A3,
{2}1w5b[8:1],{4}6bxh[8:1]/5bxh[8:1],7bxh[8:1]/8h[8:1],
5h[8:1]/6bxh[8:1],7bxh[8:1]/1h[8:1],6h[8:1]/4bxh[8:1],7bxh[8:1]/8h[8:1],
6bxh[8:1]/2h[8:1],7bxh[8:1]/8h[8:1],{8}6,1,3,4,
8,6,3,1,{4}4pp4b[4:1]*qq4b[4:1],4,
{8}A4,E6/E3,7/1x,1x,{4}2xV48b[4:1],5,
5w1b[8:1],A5/E6/E5,7V51b[4:1],4,
4w8b[8:1],A4/E5/E4,7>2b[8:1]/3<6b[8:1],7/3,
{2}5x>7b[4:1],{4}4b,3b/5,
{8}1b/7,{16}B3,B5,{8}B1,C,{4}8h[4:1],{8}3,3,
7,7,2,2,6,{16}6,2,{8}5,{16}3,4,
{8}1,{16}6,5,{8}7,{16}2,4,{8}3h[16:1],3h[16:1],4h[16:1],4h[16:1],
5h[16:1],5h[16:1],6h[16:1],6h[16:1],{16}7/5,,,5/7,,,{8}8/4,
{4}4V28b[8:1]/8V64b[8:1],4/8,{8}1,1/2,2,2/3,
3,3/4,4,4/5,5,5/6,6,6/7,
7,7/8,8,1/8,{32}A2,A3,A4,A5,A6,A7,A8,A1,E3,E4,E5,E6,E7,E8,E1,E2,
B3,B4,B5,B6,B7,B8,B1,B2,5,6,7,8,1,2,3,4,{2}5s1b[8:5],
5b-1[8:1],{4}2/8,{16}3/4,,,5/6,
,6,,5,{8}6,7/4,{16}3,4,{8}2,8-6b[8:1]/1-5[8:1],7,
{4}8x-4[8:1]/1x-3b[8:1],1x/8x,7/1,{16}6/5,,,4/3,
,3,,4,{8}3,2/5,{4}B8/E1/3x>8b[8:1],3x/5x<8b[8:1],
5x/4x-8b[8:1],4x/2x,2/8,{16}3/4,,,5/6,
,6,,5,{8}6,7/4,{16}3,4,{8}2,8-6b[8:1]/1-5[8:1],7,
{4}8x-4[8:1]/1x-3b[8:1],1x/8x,1x-6[8:1]/2x-6[8:1],1x/2x,
8x-3[8:1]/7x-3[8:1],8x/7x,{8}3,4,5,6,
{16}8,2,6,3,{4}7b/1b,2/8,{16}3/4,,,5/6,
,6,,5,{8}6,7/4,{16}3,4,{8}2,8<6b[8:1]/1p5[8:1],2,
{4}8xq4[8:1]/1x>3b[8:1],1x/8x,7/1,{16}6/5,,,4/3,
,3,,4,{8}3,2/5,{4}B8/E1/3x>8b[8:1],3/5x<8b[8:1],
5/4x-8b[8:1],4/1x,2/8,{16}3/4,,,5/6,
,6,,5,{8}6,7/4,{16}3,4,{8}2,8<5b[8:1]/1-5[8:1],2,
{4}8x-4[8:1]/1x>4b[8:1],1x/8x,7/1,{16}6/5,,,4/3,
,3,,4,{8}3,2/5,{2}1<2b[32:23],
{4},1-7-2-6-3-5[2:7],{2}Cf,
,,,,,,,8-6-1-5-2-4[2:7],
,,,,,,,4h[2:1]/3h[2:1],
,5h[2:1]/7h[2:1],
,2h[2:1]/1h[2:1],
,7h[2:1]/1h[2:1],
{4},,1s5[2:1],E8,
E7,E6,5<2<5[4:3],4z8b[2:1],
{24},,,,,,,,,,,,,,,E6,E7,E8,E3,E4,E5,A8,A7,A6,
{12}4,4,6,6z2[2:1],3,3,{2}2,
Ch[64:1],{4}2bh[8:1]/Cf,3bh[8:1]/B2f,
2bh[8:1]/B6f,3bh[8:1]/B7f,2bh[8:1]/B4f,3bh[8:1]/B1f,
2bh[8:1]/E6f,3bh[8:1]/B2f,1bx-5[8:1]/3bx-7[8:1],A1f/A3,
8bx-4[8:1]/6bx-2[8:1],A6f/A8,D7/B6/B7/E7f,Cf,
E3f/B2/B3/D3,2bx/7bx,8bxh[8:1]/3-7b[8:1],B5/B4/E5f,
1bxh[8:1]/6-2b[8:1],E5f/B5/B4,3/8,{16}2/1,,,2,
{8}1,4/7,{4}7/4>8b[4:1],{8}8bx,7,6,5/3,
{16}7bx,8,6,8,{8}7,6/2,3bxh[8:1],4h[8:1],5h[8:1],6h[8:1],
{2}4bxw8b[8:1],{4}7bh[8:1]/A1f,6bh[8:1]/A4f,
7bh[8:1]/B2f,6bh[8:1]/A4f,7bh[8:1]/A2f,6bh[8:1]/A5f,
7bh[8:1]/E3f,6bh[8:1]/A8f,{8}5b/4,3,2,1,
8/2b,7,6,5,{4}4/1bqq1b[4:1]*pp1b[4:1],1,
{8}A1,E8/E3,6/4,{16}4,5,{4}3V15b[4:1],{8}8,6,
8w4b[8:1],3,{4}E8/E1/A8f,6V84b[4:1],{8}1,3,
1w5b[8:1],5,{4}E1/E2/A1f,{64}6bpp4[8:5],3bqq5b[64:39],,,,,,,,,,,,,,,{4}Cf,
,,6/1b-5b[8:1],{64}8b-4b[8:1],E8,E7,E6f,,,,,,,,,,,,,1bw5b[8:1],
E2,E3,E4f,,,,,,,,,,,,,1b,B1,C,B5f,,,,,,,,,,,,,{4}3x/8x-4b[8:1],{16}8/2x,,,3,
,3x,,3x,{8}4,3/4x,{16}5,4,{8}6,{4}5/2x>5b[8:1],
2/1x-7[8:1]*-6[8:1],1x,3x/8-4b[8:1],{16}8/2x,,,3,
,3x,,3x,{8}4,2x/5,{4}3/8x-4b[8:1],8/2x>5b[8:1],
2/1x<6[8:1]*p5[8:1],1x,3x/8x-4b[8:1],{16}8/2x,,,3,
,3x,,4x,{8}3,3/4x,{16}5x,4,{8}6,{4}8x/2x>5b[8:1],
2/1x-5[8:1],1x,4>8b[8:1]/8bx<4b[8:1],4x/8bx,
1bxV35b[8:1]/5xV71b[8:1],1bx/5x,3bx<6b[8:1],7bx-3b[8:1],
{8}1bx,{16}2,1,{4}8bx/3,6x/1bx-5b[8:1],{16}1bx/7,,,6,
,6x,,6x,{8}5,6/5,{16}3x,4,{8}2,{4}4/7x<4b[8:1],
7/8bxv3[8:1]*-2[8:1],8bx,6x/1bx-5b[8:1],{16}1bx/7x,,,6,
,6x,,6x,{8}5,6/5x,4/7bx-3b[8:1],3V58b[8:1],7,2,
1bx-5b[8:1],2,1/8,7,{4}6V82b[4:1],{8}6,3,
{4}4w8b[8:1],A4f/E5/E4/B4,3V17b[4:1],{8}3,6,
{4}5w1b[8:1],A5f/E6/E5/B5,1bx/8bx-4b[8:1],{8}8/2,3,
{16}3bx,4bx,2,6bx,5bx,8,3b,4b,{4}2b/E1f,7b/Cf,
{8}1,{16}5,3,{8}7>6b[4:15],1/C,{2}7bx,
,,,,,,,2qq6[8:5],
,7pp4[8:5],
,3qq5[4:5],
E
&inote_6=(160){4},,6h[4:1],5-8[2:1],
4,3,2h[4:1],1-5[2:1],
8,{8}7,6,{4}6<1[4:1],4,
2>6[4:1],8,7h[8:1],6h[8:1]/8h[8:1],
{16}1/5,,,2/6,,,{8}3/7,{2}8h[2:1]/Ch[1:1],
{4},,B8/B1/E1,B6/B5/E5/B4/B3,
{8}3/6,C,{4}2/7<4[8:1],{8}7/1-5[8:1],2,1/6,7,
{16}8,1,4,3x,{8}2x>5[8:1],7/1,2/8-4[8:1],7,8/3,2,
{16}1,8,5,6x,{8}7x<4[8:1],2/8,7/1-5[8:1],2,1/7<4[8:1],8,
7/1-5[8:1],2,1/7-3[8:1],8,7/1-6[8:1],2,1/8-4[8:1],7,
{4}8/2w6[8:1],2-4[8:1],{8}2/8-4[8:1],7,8/3,2,
{16}1,8,5,6x,{8}7x<4[8:1],3/8,7/1-5[8:1],2,1/6,7,
{16}8,1,4,3x,{8}2x>5[8:1],6/1,2/8-4[8:1],7,8/2>5[8:1],1,
2/8-4[8:1],7,8/2-6[8:1],1,2/8-3[8:1],7,8/1-5[8:1],2,
{4}1/7w3[8:1],7/C,{8}2x-6[8:1],6-4[8:1],2,8,
7-3[8:1],3,2,1,2-8[8:1],4-6[8:1],{16}2,4,,1x<3[4:1],
,,{8}1x,,8,7,6/4,6,7/8,
7,{16}6,5,,4/7,,7/4h[16:3],,,{8}E7/B6,4,E3/B3,
4,{16}B8/E1,4,{8}5,6,7-3[8:1],3-5[8:1],7,1,
2-6[8:1],6,7,8,7-1[8:1],5-3[8:1],{16}7,5,,8x>6[4:1],
,,{8}8x,,1,{16}2,8,2,7,3,7,4,6,
4,4,,5/3,,6/2,,1h[16:5],{48},,,,,,,,,,,,E7,B6,{24}B5,{48},,,,,,,,E3,
B3,{24}B4,{48},,{16}6,5x,{8}7,8/4,{4}4x>8[8:1],4/6x,
{8}7,7h[8:1],5,5h[8:1],4,3,{16}1v3>2-6[16:5],7,,1,
,,{8}8,,8h[4:1],6,4,{4}2/6,
{16}4,7,3,5,2,7,1,6,{8}8h[4:1],{16},,,,1,2,
{8}3,{16}7,6,{4}2h[8:1]/5<8[8:1],5/3>8[8:1],3/8,
{16}6,1,5,2,{8}7,4,3<6[8:1],8,3,{16}7pp6[4:1],7,
,,,,,,{8}5h[4:1],{16},,,,5,5,,6,
4,5,,3/7,,8/2,,,{4}1b/7-2[8:1],7b/3p6[8:1],
3b/5<8[8:1]*>2[8:1],5b,{2}B8/E1/B1/B5/E5/B4/Ch[8:15],
8,6,
{8}5,,,4h[8:3],,A1,A2,A3,
5,6/4,7/3,2/8<5[8:1],,8/4>8[8:1],,4/6,
6h[4:1],,,1x-6[8:1],,1/8x-4[8:1],,8/2x-5[8:1],
,2/7x-3[8:1],,7x/1xV35[8:1],,1x/6xpp8[8:1],,6x/2xpp4[8:1],
,2x/7x,,6x/5x,4,2x/3,1,8/7x,
{16}6x,6,5x,5,4x,4,{8}3bxV15[4:3]*s7[4:3],,,,,,,,,{4}4>2[8:1]/8-5[8:1],
4<6[8:1],
1-5[8:1]/4>2[8:1],1<7[8:1],6-4[8:1]/1>3[8:1],1<7[8:1],
5-8[8:1]/1>3[8:1],5>3[8:1],8-6[8:1]/5-1[8:1],8-4[8:1],
2-6[8:1]/8-6[8:1],2/8,1-5[8:1]/7-3[8:1],7/1V75v6V42[2:1],
{2}1,{4}8>2[8:1],3-5[8:1]/8<6[8:1],
8>2[8:1],8<6[8:1]/5-3[8:1],8-4[8:1],{8}8<5[8:1],3-8[8:1],
8V25[4:1],3,,,7-4[8:1],5,7,{16}2,2,
4,3,5,4,{8}6-1[8:1],2>4[8:1],6,2,{16}8-3[8:1],5,{8}7-4[8:1],
,,{4}2b,{8}1-3[8:1],4-6[8:1],{4}1-7[8:1],
{8}1-3[8:1],6,1,{16}5,6,{8}7-5[8:1],4-2[8:1],{4}7-1[8:1],
{8}7-5[8:1],3,7,{16}2,3,{8}4-1[8:1],4,7-5[8:1],7,
2-8[8:1],2,4,4,1>4[8:1]/6<8[8:1],2,{4}6,
{8}5-2[8:1],8-5[8:1],5,8,{4}3qq5[4:1],{8}6,7,
7-4[8:1],4-8[8:1],{4}7b,2pp1[4:1],{8}8,7,
6-8[8:1],8-5-1[4:1],{4}6,{8}2,{16}2,3,{8}4<7[8:1],7>2-5[4:1],
{2}4,{4}C/B8f,E3/E4f,
{16}6,5,{8}6,7,4,{32}7x,6x,5x,4h[8:1],,,,,1x,2x/5x,3x/6x,4x/7x,,,,,{8}8-4[8:1],
1/2,3>8[8:1],3,{16}7,6,5,4,1,2,3,4,
1,2,3,4,2/5,3/6,4/7,5/8,{8}1<6[8:1],{16}3,4,{8}1,{16}5,5,
{8}8-4[8:1],{16}2,2,{8}8,{16}1,2,3h[8:1]/5h[8:1],,,4h[8:1]/7h[8:1],,,{8}2h[8:1]/8h[8:1],
{24},,,8,7,6,{8}5/3,1,{16}5b,6,2,3,6,7,3,4,
7,6,2,3,6,7,1,2,{24}5,6,7,1,2,3,5,6,7,1,2,3,
6,7,8,2,3,4,6,7,8,2,3,4,{32}8b,7,6,5,4,3,2,1,8,7,6,5,4,3,2,1,
4,5,6,7,8,1,2,3,4,5,6,7,8,1,2,3,{8}4z8-4b[2:1],5xs1-5[8:3],,,,,,,1-5[8:1],
5V31[4:1],1,{16}7,7x,
,6xh[8:1],{32},,8,7,6,5,,,{8}8bx,{16}2-6[8:1],1,{8}2,7-3[8:1],8,
{2}1w5[8:1],{8}7-4[8:1],4V61[4:1],7,{16}3,3x,
,2h[8:1],,,{8}3,4x/8x,{4}7-3[8:1],7/2-6[8:1],
{2}2/8w4[8:1],{8}1-6[8:1],6-2[8:1],1,{16}7,7x,
,8<5[8:1],{32},,1,2,3,4,,,{8}8x,{16}2-6[8:1],1,{8}2,7-3[8:1],8,
{2}1w5[8:1],{8}8/4x-7[8:1],3,{4}2/4b,
{8}7/4-7[8:1],3,{4}2/4b,{8}6/4-7[8:1],3,2/4b-1[8:1],3,
{2}6/4bz8[4:1],{8}2-6[8:1],6V41[4:1],2,{16}7,7x,
,6xh[8:1],{32},,8,7,6,5,,,{8}8bx,{16}2-6[8:1],1,{8}2,7-3[8:1],8,
{2}1w5[8:1],{8}6-1[8:1],1V74[4:1],6,{16}2,2x,
,3h[8:1],,,{8}2,1x/5x,{4}6-2[8:1],6/3-7[8:1],
{2}3/5w1[8:1],{8}1-6[8:1],6<1[8:1],1-5[8:1],{16}5,5x,
,7-4[16:1],{32},,3,2,1,8,,,,,,,{16}2-6[8:1],1,{8}2,7-3[8:1],8,
{2}1w5[8:1],{8}8-4[8:1],4V68[4:1],8,{16}2,2x,
,3xh[8:1],{32},,1,2,3,4,,,{8}1bx,{16}7-3[8:1],,,2,{8}2-6[8:1],1,
{2}8w4[8:1],2pp5b[4:11]/6pp1b[4:11],
,,,,,,,1qq4[4:13]/5qq8[4:13],
,,,,,,,3h[4:1]/A7/A6,
5h[4:1]/D3,{4}3h[4:1]/C,A7/A6,
5h[4:1],{8}D3,5,{4}5/4h[4:1],A7/A6,
{2}5h[4:1]/D3,{4}3h[4:1]/C,E7,
{16}6h[16:3]/D3,,,5,,,{8}4/5,{4}3/6h[4:1],A7/A8,
3h[4:1],A1/A2,8h[4:1],A5/A4,
{8}4/5,6/3,{4}2h[4:1]/7h[4:1],{24},,,3,5,4,{16}5,2,4,3,
7,5,{48},,{12}6,3,5,4w8b[0.875##0.25],{2}4h[8:3],
A4,{4}8b/2b>5[8:1],2/7>2[8:1],
7-4[8:1]/3-7[8:1],3/7,8-3[8:1]/5<8[8:1],5/8,
3>8[8:1]/1-5[8:1],3/1,4-7[8:1],2/4-1[8:1],
6/4-7[8:1],4/1>4[8:1],1<6[8:1]*-6[8:1],1w5[8:1],
1b,3x/7x,1b/7b<4[8:1],7/2<7[8:1],
2>5[8:1]/6v1[8:1],6/2,8<5[8:1]/4>1[8:1],4q8[8:1]/8q4[8:1],
4>1[8:1]/8<5[8:1],4b/8b,{8}8/4,2/6,{16}7,5,6,4,
5,3,{8}3h[8:1],{16}8,2,7,1,6,5,8,1,4,3,8,1,
{4}5w1[8:1],5x,{8}3b/7b-4[8:1],8,1-5[8:1],2,
6<1[8:1],7,{4}6/4-7[8:1],{8}4/2-5[8:1],1,8-4[8:1],7,
3-7[8:1],2,{4}3/5-8[8:1],{8}4/5,3,1/2>5[8:1],3,
2/1<6[8:1],8,1/2,3,{4}4/5-7[32:3]*-8[8:1],5,
{8}1/2,3/4,5/6,7/8,{4}1x-5[8:1]/6x-1[8:1],6/1-3[8:1],
{8}1-5[8:1],7,{4}1,8x-4[8:1]/4x-2[8:1],4/8-6[8:1],
{8}8-4[8:1],2,{4}8,{16}2h[16:3],,,3h[16:3],,,{8}4,
{16}7h[16:3],,,6h[16:3],,,{8}5,3b/4b,2,6b/5b,7,
{16}8b-4[8:1]/1b-5b[8:1],2/7,{8}3/6,{4}1bx/8bx,{8}2b/7b,{16}3,4,{8}2,{16}7,7,
5,6,4-7[8:1],5,{8}3,4x,1,{16}6,5,{8}7,{16}2,2,
4,3,5-2[8:1],4,{8}6,5x,8,{16}7,6,{8}8,{16}2,3,
{8}1w5[8:1],8,{4}1,{8}4-8[8:1],3,5-1[8:1],6,
{4}4h[4:1],8,{8}3/6,{16}2,1,{8}3,{16}6,6,
8,7,1-6[8:1],8,{8}2,1x,4,{16}7,8,{8}6,{16}3,3,
1,2,8-3[8:1],1,{8}7,8x,5b,{16}3,4,3,2,3,4,
{4}2-5[8:1]*-4[8:1],2<7[8:1],6/2>5[8:1],2-6[8:1]/6-2[8:1],
6/2,{16}8/4,7/3,6/2,5/1,{8}4b/8b-3b[8:1],2,8-5b[8:1],7,
8-3b[8:1],2,{4}8/5-2[8:1],{8}7/5-8[8:1],6,5-2[8:1],4,
5-8[8:1],6,{4}5/3,{8}1,8/2,3/4,5/6,
2/5,7/4,{4}1-3[8:1]/8-3[8:1],8-6[8:1]/1-6[8:1],1-3b[8:1]/8-3b[8:1],
8-6b[8:1]/1b-6b[8:1],1/8b,{8}7bx/4b,{16}3,4,{8}2,{16}5,3,
6,4,7,5,{4}8-4b[8:1],{8}1bx/8b,{16}1,3,{8}1,{16}8,6,
{8}8,5/1,{4}3/7-4[8:1],{8}7b/2b-5[8:1],2,2/6-1[8:1],6,
6/3-8[8:1],3,{4}3/5<8[32:3],{32}1x<5[32:3],2,3,4,,,,,5x,4,3,2,{8}1,
{16}8h`4h,,,1,{4}2/8w4b[8:1],{2}8b<1[4:11],
,,,,,,,2qq6[8:5],
,7pp4[8:5],
,3xqq5[4:5]*qq5[4:5]/6xpp4b[4:5],
E
