&title=LaVI-Bavellabion
&artist=SLAVE.V-V-R
&first=0.02
&des=Ylng VS. IQ9
&lv_5=13
&inote_5=(142){1},
{16}3,4,3,,6,5,6,5,7,,3,4,3,4,2,,6,5,6,,2,4,3,4,2,,7,5,6,5,7,,2,4,3,,6,5,7,6,8,,3,4,2,3,1,,7,5,6,,3,4,3,2,4,,6,5,6,7,5,,
{16}4/3-5-2[4:1],,,,6,,7,,8-4[8:1],,,,8/1,,,,
{16}2-5[8:1]/4,,,,6-2[8:1],,,,4-7[8:1]*-8[8:1],,,,,,,,
{16}5/6-4-7[4:1],,,,3,,,,1-5[8:1],,,,1/8,,,,
{16}7-4[8:1]/5,,,,3-7[8:1],,,,8<5[8:1]*>3[8:1],,,,8b,,,,
{8}7b-5-8-3[4:2]b/1h[2:1],,,,,,,,2b-4-1-5[4:2]/6h[2:1],,,,,,,,7b-1-6-4[4:2]b/3h[2:1],,,,,,,,3b-1-6-2[4:2]/5h[4:2],,,,,,,,
{8}1/7b-5-8-4[2:1]b,,1-3-8[4:1],,,,,,2b-4-1-5[2:1]/6,,7-5-8[4:1]b,,,,,,3/7b-5-8-4[2:1]b,,1-3-8[4:1],,,,,,3b-5-2-6[2:1]b/5,,8-6-1[4:1],,,,,,
{16}7x/3,,6,5,7x,,7/3,,2x/6,,3,4,2x,,2/6,,7x/3,,6,5,7x,,7/3,,2x-5[8:1]/6,,3,4,2x,,,,
{16}7x/4,,6,5,7x,,6/5,,2x/5,,3,4,2x,,3/4,,7x/4,,6,5,7x,,6/5,,2x-8[12:1]/5,,3,4,2x,,,,
{4}7<4[8:1],7h[4:1],3-7[8:1],1h[4:1],
8V61[4:1],1V74[4:1],2-6[8:1],2x,
{16}1x>4[8:1],8,7,6,5,,,,8-4[8:1],7,6,5,4,
{16},,,1-5[8:1],8,7,6,5-2[8:1],,,,
{16}8-4[8:1],7,6,5,4,,,,
{4}2>5[8:1],2h[4:1],6-2[8:1],8h[4:1],
1V38[4:1],8V25[4:1],7-3[8:1],7x,
{16}8x<5[8:1],1,2,3,4,,,,1-5[8:1],2,3,4,5,
{16},,,8-4[8:1],1,2,3,4-7[8:1],,,,
{16}1-5[8:1],2,3,4,5,,,,
{16}2/7,,,3/6,,,4/5,,5x/4x-6-1-3[4:3],,,,,,,,Ch[4:3],,,,,,,,,,,,,,,,1/2,,,8/3,,,7/4,,5x/6x-4-1-5[4:3]b,,,,,,,,B7/B6,,,,,,,,B2/B3,,,,C,,,,
{8}5b/6-2[8:1],5/7b,,,4b/3-7[8:1],4/2b,,,8b-4[8:1]/1,,
8/2b<7[8:1],,5w1[8:1]b,,A5/B5/Cf/B1/A1,,
7b-4[8:1]/4b-8[8:1],,7/4<7[8:1],,{24}1x-5[8:1],2x,3x,4x,,,
{8}1/3V15[16:3],,4x-8[8:1],,6xV84[16:3]b,,E7f/B6/B7,,,
6-2[8:1]/5,,6-4[8:1],4V68[4:1]b,6,2-6[8:1],,,
1-5[8:1],5-7[8:1],1-3[8:1],8-4[8:1],1,8<5[8:1]b*>3[8:1]b,,8,,
2b-5[8:1]/5b-1[8:1],,2/5>2[8:1],,{24}8x-4[8:1],7x,6x,5x,,,
{8}8/6V84[16:3],,5x-1[8:1],,3xV51[16:3]b,,E3f/B3/B2,,,
7/8,6-2[8:1],5,1-6[8:1],8,5-1[8:1],4,8-5[8:1]b,7,3xV58[4:1],,8bxV26[4:1],,5bx-8[8:1]b,,,,
6b-8[8:1]/1b-5[8:1],,1/6V48[16:3],,7-3[8:1]b,,1V73[16:3]/7,,4-1[8:1],,2-6[8:1]b*-5[8:1]b,,2b,,,
6-1[8:1]/4,,6qq4[8:1],4<6[8:1]b,6<1[8:1]b,2-6[8:1],,,
1-5[8:1],5-7[8:1],1>3[8:1],8q4[8:1],1,8w4[8:1]b,,8b,,
3b-1[8:1]/8b-4[8:1],,8/3V51[16:3],,2-6[8:1]b,,8V26[16:3]/2,,5-8[8:1],,7-3[8:1]b*-4[8:1]b,,7b,,,
2/1,3-7[8:1],4,8-3[8:1],1,4-8[8:1],5,1-4[8:1]b,2,6xV41[4:1],,1bxV73[4:1],,4bx-1[8:1]b,,,,
Cf/8b-5[8:1]*pp3[4:2]b,,,,4<7[8:1],,,,
{32}8x/4x,1,2,3,4,5,6,7,8-4[8:1]/2b,3,4,5,6,7,8,1,
{8}2b-7[8:1]b*-5[8:1]b,,2bx,,
{16}6b/4b,,7-3[8:1],5,8x,,7/3,,2b,,2-6[8:1],4,1x,,2/6,,
7b<4[8:1],,8,1,7x,,2,,3b/1b-5[8:1],8,7,6,5x/1,,,,
4b/6b,,3-7[8:1],4,2x,,3/1,,8b,,6-2[8:1],5,7x,,6/4,,
3b>8[8:1],,4,5,3x,,6,,7b-3[8:1]b/5b,6,5,4,
3b/7b-1-6-2[4:6],,,,
{32}2,3V14-8[32:39]b,4,
