&title=FULi AUTO SHOOTER
&artist=MYUKKE.
&first=0.05
&lv_5=14
&des_5=刻于晴空玉衡星
&inote_5=
(145){4},,,,{8}3/6,
{16}4,5,{4}4,6h[8:1]/4h[8:1],{8}6h[8:1],5,
6h[8:1],4,6h[8:1],3,6h[8:1],2,1q6[4:1],8,
1,{4},{16}7,5,{8}7,7h[8:1],5h,7h[8:1],
4h,7h[8:1],3h,7h[8:1],2h,7h[8:1],1p4[4:1],7h[8:1],
1,{4},{16}3,5,{8}3,3h[8:1],5h[8:1],3h[8:1],
6h[8:1],3h[8:1],7h[8:1],3h[8:1],8h[8:1],3h[8:1],1h[8:1],3h[8:1],
{4}2b<4[4:1],{8}2,3x,{4}3b<1[4:1],{8}3,8x,
{4}6bxh[4:3],8,7-3[16:1],7b,
{8}5/4xh[8:3],6,7,8,{4}4xh[4:1]/1<5[4:1],{8}1,4,
3,3,2,2,1/8,1/8,7>4[4:1],8,
7,{4},{16}1,1,{8}6,1h[8:1],4,1h[8:1],
{4}6h[8:1],8h[8:1]/7h[8:1],2h[8:1]/1h[8:1],4h[8:1]/3h[8:1],
{8}4b/5bh[4:1],{4},{16}4,5,{8}4,5/4,4/5,{16}3,6,
{8}3b,3/6,6/3,3/6,2/7,2/7,8/1,8/1,
{4}2b/7bh[8:1],{8}1b/5b,3b/7b,{4}5b/1bh[8:1],{8}8b/4b,2b/6b,
{4}8bh[8:1]/B2/B3/E3,1bh[8:1]/B7/B6,C/8bw4b[8:1],8b,
{8}5x/4x,3,4/5,6,3/5,3,4/6,6,
3/6,{16}5,4,{8}6/3-8[8:1],2,3/6-1[8:1],7,6/3,2,
1x/8x,2,4/3,2,1/8,7,5/6,4,
3/5,2,4/6,7,3v8[8:1]/6v1[8:1],{16}4,5,{4}3/6,
{8}2x/7x,1,2/7,8,8/2,3,7/1,6,
2/7,{16}8,1,{8}7/2-5[8:1],1,2/7-4[8:1],8,7/2,3,
1x/8x,3,1/8,6,8/1,4,1/8,5,
2/8,4,7/1,5,2v5[8:1]/7v4[8:1],{16}1,8,{4}2/7,
{8}6x/3xh[2:1],7,8,1,8-4[8:1],2-6[8:1],8x,2,
5x,{16}3,4,{8}2,6,1x-5[8:1],7-3[8:1],1,7,
4x,5,4-2[8:1],5-7[8:1],4-8[8:1],5-1[8:1],4x,5,
2x-4[8:1],2-8[8:1],2-6[8:1],2,2x,{16}7,8,{8}7,1,
5/4,7,4/5,2,5/6,8,4/3,{16}1,1,
{8}2/8,3,1/7,6,2/8,4,1/7,5,
{16}1,8,1,8,1,8,1,8,{32}1x,2x,3x,4x,5x,6x,7x,8x,1x,2x,3x,4x,5x,6x,7x,8x,
{2}1bx,{32}A1/A5,D6/D2,A6/A2,D7/D3,A7/A3,D8/D4,{16}A8/A4,{4},{2}4h[2:1]/8h[4:1],
{8}8-6[8:1],8/4-2[8:1],8-2[8:1],4,
{4}8-6[8:1],8/4,{8}4/8-6[8:1],{16}4,4,{8}8-2[8:1],4-6[8:1],
4/8-6[8:1],4-2[8:1],8,4,8-6[8:1],4,8/4-2[8:1],4,
{4}4/8-6[8:1],8/4,{8}8-6[8:1],8/4-2[8:1],8<5[4:1]/4>1[4:1],4,
{2},{8}1-3[8:1],1,5-7[8:1],5,
{4}5/1-3[8:1],1/5,{8}5/1-3[8:1],{16}5,5,{8}1-7[8:1],5-3[8:1],
5/1-3[8:1],5-7[8:1],1,5,1-3[8:1],5,1/5-7[8:1],5,
{4}5/1-3[8:1],1/5,{8}1-3[8:1],1/5-7[8:1],{4}1>4[4:1]/5<8[4:1],
,B7/B6,{8}5,5/3h[4:1],B7/B6,5h[8:3],
{4}4,B7/B6,{8}5/3,{16}4,4,{8}4/B7/B6,5,
4h[8:1],5h[8:1],3h[8:1]/B7/B6,4h[8:1],5,4,3/B7/B6,5h[8:1],
{4}3h[4:1],B7/B6,{8}3/6,5,4/B7/B8,5,
{4}4h[4:1],B2/B1,{8}4,5h[4:1],B2/B3,4,
{4}6/4h[4:1],B2/B3,{8}5,{16}4,4,{8}6/B2/B3,5,
5h[8:1],4h[8:1],6h[8:1]/B2/B3,5h[8:1],4,5,6/B2/B3,4h[8:1],
{4}6h[4:1],B2/B3,{8}6/4,5,{4}6/B2/B3,
{1}4h[1:1]/5h[1:2],
,{8}4,
4,4,4,{16}4,5,4,5,{8}4,3/6,
3V51[16:3]/6V48[16:3],4/5,{4}3/6,{16}2x,2x,2x,2x,{8}2xq5b[2:1],1/8,
2b/1,8,7,6,8-6[16:1],1-5b[16:1],8,1,
7b,6,3/5,2/6,7-5[16:1],8-2b[16:1],7p4b[2:1],8,
7b,1,2,3,1-3[16:1],8-4b[16:1],1,8,
2b,3,6/4,3/7-4[16:1],7-2b[16:1],7,{4}7x,
{8}3x/6,{16}5,4,{8}6x/3,4,6/3x,5,3/6x,4,
2x/7,{16}8,1,{8}7x/2,8,2x/7,{16}1,8,{8}7x/2,1,
2x/5,{16}4,3,{8}2/5x,4,5/2x,3,5x/2,4,
7/4x,{16}5,6,{8}7x/4,5,4x/7,{16}6,5,{4}4/7x,
{8}6/5,{16}6,4,{8}6,6/3,6/5,6/4,6/3,6/2,
3/4,{16}3,5,{8}3,3/6,3/4,3/5,3/6,3/7,
{16}4,5,4,5,4,5,4,5,4,5,3,6,2,7,1,8,
{8}1x,1x,1x,1x,{4}1xw5[8:1],{32}1b,B1,Cf,B5,{8},2x/7x,
{16}8,1,{8}8-4[8:1],7,8/2-5[8:1],1,8/2,6,
7x/2x,{16}1,8,{8}1-5[8:1],2,1/7-4[8:1],8,1/7,3,
2x/7x,{16}8,1,{8}8-4[8:1],7,8/2>5[8:1],1,8/2,6,
7x/2x,{16}1,8,{8}1,7,1/8w4[8:1],8,{4}8,
{8}3x/6x,{16}5,4,{8}5-1[8:1],6,5/3-8[8:1],4,5/3,7,
6x/3x,{16}4,5,{8}4-8[8:1],3,4/6-1[8:1],5,4/6,2,
3x/6x,{16}5,4,{8}5-1[8:1],6,5/3>8[8:1],4,5/3,7,
6x/3x,{16}4,5,{8}4,6,4/5w1[8:1],5,{4}5,
{16}4b,5,3,6,2,7,1,8,1x,8,2,7,3,6,4,5,
3x,4,2,5,1,6,8,7,5x,6,4,7,3,8,2,1,
3x,4,2,5,1,6,8,7,5x,6,4,7,3,8,2,1,
4x,5,3,6,2,7,1,8,1xw5[8:1],8,1,8,{4}1b,
