&title=201ばんどうろ
&artist=佐藤仁美
&first=0
&des=Cinno
&lv_5=12+
&inote_5=(120)
{8}1,1h[8:1],B8,B7,2,2h[8:1],B8,B7,3,3h[8:1],B8,B7,4,4h[8:1],B8,B7,
{8}2/8x,3,46,7,8-6[8:1]/1,2,3,,17,2,35,6-8[8:1],5,5,B4,,
{8}57,4,6,4p2[4:1],5,5,C,,
{8}8,1,7,8,6h[4:1],,
{16}A1,D2,A2,D3,
{4}3xh[8:1]/5h[8:1],3h[8:1]/5h[8:1],6h[8:1]/4h[8:1],6h[8:1]/4h[8:1],
{8}12,3,78,6,1-4[8:1]*-6[8:1],,1,,
{4}2h[8:1]/8h[8:1],2h[8:1]/8h[8:1],7h[8:1]/1h[8:1],7h[8:1]/1h[8:1],
{8}46,1,35,8<4[4:1],,1,
{16}1,8,7,6,
{12}8x-4[8:1]/5x,,4,8,,2,8,3,7,B1,,7,
{12}78,,2,21,,8,2,7,3,B6,,3,
{12}34,,6,65,,2,4,3,5,E3,,7,
{12}7,4,4,5,5,3,
{8}3,6<8[8:1],5,4,
{8}3,3h[8:1],C,,5,5h[8:1],C,,2,2h[8:1],C,,8,8h[8:1],C,
{16}2,3,
{8}4/7x,5,68,2,3/5-1[8:1],1p6[4:1],2h[8:1],,2,3,4-2[8:1]/5,2-5-1[4:1],1,8h[8:1],,
{16}7,6,
{8}5x/2,6,37,2p8[4:1],3,3,C,,
{8}6-1[8:1],1q5[8:1],2,3,4xh[4:1],,
{16}2,1,8,7,
{4}6h[2:1]/8-2[8:1],8-3[8:1],8-4[8:1]*-5[8:1],8,
{8}1>5[4:1],5,6-4-2[4:1],8,1-4-6[4:1],6,7,8,
{4}1-3[8:1]*-5[8:1],1-4[8:1]*-6[8:1],1-5[8:1]*-7[8:1],1,
{16}28,,1,7,1,,6/8>3[8:1],,,,7b,,5,6,7,8,
{12}1b/5b,,2,8,,1h,5,7h,3,C,,2,
{12}13,,7,86,,8h,4,2h,6,C,,3,
{12}24,,6,57,,3h,5,7h,1,C,,1h,
{12}3,5h,8,2h,4,6h,
{8}1,5>3[8:1],6,7,
{8}8<6[8:1],8,C,,1<7[8:1],1,C,,2<8[8:1],2,C,,3>1[8:1],3,C,,
{1}Cf/4xb,
E
