&title=秒針を噛む
&artist=ずっと真夜中でいいのに。
&first=0
&lv_6=13
&des_6=Memoriを噛む.
&inote_6=
{4}(130),,,,{8}2b/7b,
{16}3,4,,1,,8,,7/8,{8}8/7,{4}7-3[16:1],
{8}7/4,{16}5,6,,7,,8,,1/2,{8}1/2,{4}3/4<7[16:1],
{8}4/2,{16}1,8,,7,,6,,5/6,{8}5/6,{4}5>2[16:1],
{8}5/7,{16}8,8,1,1,,3/4,,1/2,{8}1/2,{16}8,7,6,5,
{8}4,{16}4,4qq1[16:5],{8},7h[8:3],{2},{16}8,
1,{8}8,2,{16}5,3,{8}8<6[16:1],{16}2,3,4,5,{8},7qq4[4:1],
1,4<2[16:3],3,3,{16}A1,A2,A3,A4,{8}A5,
{16}2h[8:1],{8},{16}2,{8},2/7-5[16:1],{4},{16}3,5,4,6,
{8}5,{16}5,5pp8[16:5],{8},2h[8:3],{2},{16}1,
8,{8}1,7,{16}4,6,{8}1>3[16:1],7,{16}5,5,{8},2q6[16:1],
2,2/7p3[16:1],7,7/1>7[8:1],1,1,8-4[16:1],
{4},{8},2/7,,{32}B2,B1,B8,B7,{16}4/B6,5x,6x,7x,
{8}8x,{16}2,2>7[16:5],{2},{4}1b,
{16}7,8,6,1,7,8,1,2,{8}3,4,{16}5/4,5/4,{8},2b/1b,
{16}3,4,{8}3,3,7b/8b,{16}6,5,{8}6,6,
2/7,{32}2x,1x,2x,1x,2x,1x,2x,1x,2x,1x,2x,3x,4x,5x,6x,7x,8x,1x,2x,3x,{16}4x,7,4,7,
,1/8,{8}8qq5[8:3]/1pp4[8:3],{4},,,{8}4/3,
{16}2,1,{8}2,{16}2,1<6[16:3],{8},3,{16}4,4,{8},2-5[16:1],
2,2/8-4[16:1],8,8/1>6[8:1],1,1,7-3[16:1],
{4},{8},1/2,3/4,5/6,{4}7/8,
{8}1/2,{16}3,4,{8}3,{16}5,4,{8}5,5,6,7b-4[16:1],
,7/8,2,{16}3,4,3,4,{8}3,2,1b-5[16:1],
,1/8,8-3[16:1],8,8/2-6[16:1],2,2/7-4[16:1],7,
{4}7b>3[8:1],7b-5-1-3[16:5],{2}7b,
{8}2/4-8[16:1],3,4,7/5-1[16:1],6,5,,3/6,
{32}1b/8b,7,6,5,{8},{32}1b/8b,2,3,4,{8}8,7,6,5,4/3,
2/1,7/8,6/5,4/3,5/2-8[16:1],2/5,2/5w1b[16:1],5,
{32}5b,{4},{32}3qq5[32:15]/6pp4[32:15],{16},{32},3/6,{4},,{16},,,{8}1/8,
2/7,3/6,{4}4w8[16:1]/5w1[16:1],4b/5b,
{32}1b/8b,2/7,3/6,4/5,{8},2/5,1/6,{32}7b/8b,6/1,5/2,4/3,{8},7/4,8/3,
{32}2b/1b<6[16:1],3,4,5,{8},{4}1b>8[8:1],{64}1b,A1,A2,A3,A4,A5,A6,A7,{8}A8,{4}2/7,
{8}2/1,1/2,{16}3/4<7[16:1],{8},{16}2,{8}4/2,1,8,{16}7,8,
7,8,{8}7,6,5-7-3-1[4:1],,5,{4},{32}1b,
2/8,3/7,4/6,{8}5,6,7,{32}8b,7/1,6/2,5/3,{8}4,7/4,8/3,
{32}2b/1b<6[16:1],3,4,5,{8},{4}1b>8[8:1],{64}1b,A1,A2,A3,A4,A5,A6,A7,{8}A8,2/7,1/8,
,3/4,2/1,{16}3,8,3,8,4,7,4,7,5,6,
{2}5<4[16:3],{16}7,1,,3,{4}4-8[16:1],
,{8}2/5,{16}2,5,3,6,4,7,5,8,{8}6h[8:1],
,{16}8,1,7,2,6,3,,6,,4/5,{4}4/5,
{16}2h[16:1]/1h[16:1],{8},{16}3,3h[16:1]/4h[16:1],{8},{16}7,{4}7/8>4[16:1],8,
{16}7h[16:1]/8h[16:1],{8},{16}6,6h[16:1]/5h[16:1],{8},{16}2,{4}2/1<5[16:1],1,
{16}3h[16:1]/4h[16:1],{8},{16}2,2h[16:1]/1h[16:1],{8},{16}6,{4}6/5>1[16:1],5,
{32}6,{16},{32}5,{16},7,{32}3-6[8:1],{16},{32}4,{16},2,{2}3V17[8:1],
{8}2-4[16:1],2,2,{16}A8,A7,A6,A5,A4,A3,,C,{8},7-5[16:1],
7,7,{16}A1,A2,A3,A4,A5,A6,,C,{8},8/4,
3/7,{4}2>5[8:1]/6<1[8:1],2/6,{8}2/7,{32}B1,B2,B3,B4,
{1}Ch[8:7],
{8}2/7,2/7,7/2,2/7,1/8,8/1,1/8,1/8,
{16}1,8,1,8,1,8,1,8,{32}1b,2,3,4,5,6,7,8,6b,5,4,3,2,1,8,7,
{4}Cf/6b>8[8:3],{2},{4}3qq8[4:1]/7qq4[4:1],
{2}3/7,{8}3/6,{16}3,4,3,4,{8},{16}7h[16:1]/8h[16:1],
{8},{16}5h[16:1]/6h[16:1],{8},5h[16:1]/6h[16:1],{16}6/5,{8},{16}4h[16:1]/5h[16:1],{8},3h[16:1]/4h[16:1],
{16}2,4,3,5,2,4,3,5b,{8},{32}8,7,{16}6,,{32}7,6,{8}5,
{16}2>5[4:1],{8},{16}B8/A8,,A7/B7,,B6/A6,{8},7/8,8/1,1/2,
{16}2>5[4:1],{8},{16}B6/A6,,B7/A7,,B8/A8,{8},3/6,3/6,3/6,
{16}B3/B2/Ch[8:5],{4},,{8},{16}A1,A8,A7,A6,A5,
A4,{8},{16}B7/B8/E8,{8},B4/B3/E4,{16}B7/B6/E7,{8},{16}B2/B1/E2,{8},B7/B6,
{1}B2/B3/Cf,
{4}E7,C,{2}E3,
{16}3h[4:1]/5h[4:1],{4},{8},{16}3/5,,4/6,{8},7,8,
1h[4:1]/2h[4:1],{4},{8}8,7,6,5,4,
{2}3<3<3<3[8:11],E7,
E8,E1,
{8}1/7,1/7,1/7,1/7,2/8,8/2,8/2,8/2,
{16}2,8,2,7,2,6,2,5,2,4,2,4,1,4,8,4,
{64}7bw3[16:1],6x,5x,4x,3x,2x,1x,8x,{8}7x,{4}7bx,1bw5[16:1],1b,
{32}8bz4[16:1]/1bs5[16:1],2/7,3/6,4/5,{8},{4}1b/8b<1[8:1],{64}A8,A7,A6,A5,A4,A3,A2,A1,{8},{4}2/7,
{8}7/8,8/7,{16}6/5>2[16:1],{8},{16}7,{8}5/7,8,1,{16}2,1,
2,1,{8}2,3,4-2-6-8[4:1],,4,{4},8bw4[16:1],
8bx,1bw5[16:1],1bx,
{32}1b-5[16:1],2/8,3/7,4/6,{8}5,{4}1bw5[16:1],1b>8[8:1],{64}A1,A2,A3,A4,A5,A6,A7,A8,{4},{8}2>5[8:1],
2,2,1V73[4:1],1,{4}1,
{8},7<4[8:1],7,7,8V26[4:1],8,{4}8,
{8},2/6,3/7,4/8,4/8,4/8,8/4,5/1,
2h[2:1]/6h[2:1],{2},{32}2/6,1/5,8/4,7/3,{8}2/6,Cfh[8:3],
{1},{8}2/1,
{16}3,4,,1,,8,,7/8,{8}8/7,{4}7-3[16:1],
Cf/7b>5[8:3],{2},{4}3/4<7[16:1],
{8}4/2,{16}1,8,,7,,6,,5/6,{8}5/6,{4}5>2[16:1],
{8}5b/Cf,{16}6,5,,8,,1,,2/1,{8}1/2,{4}2-6[16:1],
{8}2/5,{16}4,3,,2,,1,,8/7,{8}8/7,{4}6/5>2[16:1],
{8}5/7,{16}8,1,,2,,3,,4/3,{8}4/3,{4}4<7[16:1],
{8}4/2,{16}1,1,8,8,,6/5,,8/7,{8}7/8b-2-6-4[8:1],8b,8b,
