&title=Roll the Dice
&artist=lapix
&first=2.75
&lv_4=1
&des_5=Ra_V_S
&lv_5=14
&des=Ra_V_S
&inote_4=(165){4},
E
&inote_5=(165){16}E3,E4,,E7,{8}E6,{16}E1,C,B7,B8,B1,B2,{8}E5,{16}B6/E6,E4/B3,
{1}8bx-5[2:1]*z4[2:1],
8>5-8[2:1],
{8}2/6,2h[8:5]/6h[8:5],,,,,,,{1}Ch[4:3]/5x<1[2:1],
{16}7,8,7,8,{4}7<2[4:1],{2}1h[4:1],
{16}2,1,2,1,{4}2>7[4:1],{2}8h[4:1],
{8}8/4h[8:1],8,3/7h[8:1],3,6/2h[8:1],6,1/5h[8:1],1,
{16}2,6,2,6,3,7,3,7,{4}4w8b[8:1],4b`B4f,
{8}6/2h[8:1],{16}7,7,2h[8:1],5,{8}5,6/2h[8:1],7,{16}8/2h[8:1],7,{8}6,
1/5<8[8:1],6,5/1>4[8:1],2,1/5-1[8:1],6,{4}7/5,
{8}3/7h[8:1],{16}2,2,7h[8:1],4,{8}4,3/7h[8:1],2,{16}1/7h[8:1],2,{8}3,
6-3[8:1],2-7[8:1],6,2,{16}D5,D6,{8}D7,E1,{16}A2,A3,
{8}8bh[8:1],4h[16:1],7h[8:1],3h[16:1],6h[8:1],2h[16:1],5h[8:1],1h[16:1],
{16}7,8,7,8,6,1,6,1,5,2,5,2,4,3,4,3,
{8}5-7[8:1],5-3[8:1],5-8[8:1],5x-2[8:1],5x-1[8:1],5x,{4}5x,
7bpp4[8:3]/2bqq5[8:3],,,E7/B6/Cf/B3/E3,
4b/8bV64-7[8:3],1-5[8:1],1bpp4[8:3],6-1[8:1],
6x>3-7[8:3],8-2[8:1],8b,1/5V71[4:1],
1xV35[4:1],5<1[4:1],1b>5[4:1],5,
{8}1x-5[8:1]*-6[8:1],1,{4}1,{16}8,7,6,5,1,2,3,4,
{4}8/5xv3>8[8:3],7-2[8:1],7b-4<8[8:3],1-5[8:1],
1x-7-2-4[8:3],6v1[8:1],6b,2/7-5[8:1]*v4[8:1],
7x-1[8:1]*v2[8:1],7,{8}3b/4b,4/5,5/6,4/5,
{16}6,3,6,3,7,2,8,1,{4}8w4b[8:1],A8f,
{2}Ch[4:1]/6b<2V86[2:1],{4}E5/E4,3V16>4-8[8:5],
{2}Ch[4:1],{4}E7/E6,{16}1-5-7[4:1],2,{8}3,
{4}7x-3-1[4:1],1q5-7[4:1],7bp3-1[4:1],1,
{8}8-5[8:1]*-3[8:1],8,{4}8,{16}1,2,3,4,8,7,6,5,
{8}4/2bh[8:1],8,5/7h[8:1],1,4/2h[8:1],8,5/7h[8:1],1,
{2}6<1[8:1]/2v5[8:1],8-6>5[8:1]/4-1[8:1],
{8}2/6,2/6,3/7,3/7,{16}8,4,7,3,6,2,5,1,
{32}4,3,2,1,8,7,6,5,4,3,2,1,8,7,6,5,{4}4x/Cfh[4:1],B7/B6/B3/B2,
{8}1b-6[8:1],2,1/3-8[8:1],4,3/5-2[8:1],6,7/5,8,
{16}1/7,2,3,4,1,8,7,6,3,5,2,6,1,7,2,8,
4,5,6,7,4/8,1,2,3,4/8,7,6,5,4/8,3,2,1,
4,8,3,7,2,6,1,5,8,7,6,5,8/4,3/7,2/6,1/5,
{8}8b-3[8:1],7,8/6-1[8:1],5,6/4-7[8:1],3,2/4,1,
{16}8/3,2,1,8,5,6,7,8,3,1,2,8,1,7,8,6,
1,2,3,4,2,3,4,5,3,4,5,6,4,5,6,7,
5,6,7,8,1,2,3,4,{32}8,7,6,5,4,3,2,1,{4}8bx/Cf,
{8}1/7v4[8:1],2/6,{16}7/3<6[8:1],3,,1,{8}1-5[8:1],2,1/8,7-2[8:1],
4/6,7,{16}3,3,{8}1,7/4<3[4:1],6,{4}5/4,
{8}6x-2[8:1],5,6,3-7[8:1],4,3,{16}8h[8:1],,,1h[8:1]/2h[8:1],
,,{8}3h[8:1]/4h[8:1],{16},6h[8:1]/5h[8:1],,,{8}8>3[8:1]*<5[8:1],1/7,,,8/2v5[8:1],
7/3,{16}2/6>3[8:1],6,,8,{8}8-4[8:1],7,8/1,2-7[8:1],
5/3,2,{16}6,6,{8}8,2/5>6[4:1],3,{4}4/5,
{16}3xh[8:1],,,4h[8:1]/2h[8:1],,,{8}5/1,6-1[8:1],7/4,{16}2-5[16:1],,,7-4[16:1],
,,{8}3-8[16:1],{16},6p2>8b[16:7],,,{8}1x,1xh[4:1],,,{1}Cf,
,8h[4:7],
1h[4:3],
{12}2/1>4[8:1],8,7,6/1,,,1/8>3[8:1],7,6,5/8,,,7/8<5[8:1],
1,2,3/8,,,8/1<6[8:1],2,3,4/1,{48},,,,,,,,{16}5,
3,5,3,6,4,6,4,7,5,7,5,8,4,8,4,
7,7,5,5,3,3,1,1,8,8,8,8,8-4[8:1],8,8,8,
{8}8bx<5[8:1],{16}2,2,8p4[8:1],3,{8}3,1/8<5[8:1],2,{16}8/3,2,{8}1,
4-8[8:1],3-7[8:1],4>5[4:1],3,{4}4,4b,
{8}1>4[8:1],{16}7,7,1q5[8:1],6,{8}6,8/1>4[8:1],7,{16}1/6,7,{8}8,
7-2[8:1],3v6[8:1],7,3,{16}E1,C,{8}E5,A2,A6,
{16}1x,2,3,4,8x,7,6,5,1x,2,3,4,8x,7,6,5,
3,4,3,4,2,5,2,5,1,6,1,6,8,7,8,7,
{32}1x,2,3,4,5,6,7,8,1,2,3,4,5,6,7,8,1x/6x,5,4,3,2,1,8,7,6,5,4,3,2,1,8,7,
{8}6x/5x,3x/4x,1x/2x,7x/8x,{4}5x/4xw8b[8:1],Cf,
{8}2b/6b,{16}1,1,4-8[8:1],3,5,2,{8}4,{16}3,3,1-6[8:1],2,8,3,
{8}1,{16}5,5,7v2[8:1],8,6,1,{8}7,{16}4,4h[8:1],,1,{8}2/8,
3/7,{16}6,6,1q5[8:1],5,3,7,{8}1,{16}8,8,3>8[8:1],5,2,6,
{8}3,{16}7,7,4v1[8:1],8,3,1,{8}4,{16}7,7h[8:1],,2,3,4,
{8}6b/5bx<8[8:1],{16}B7,B3,5,1,2,3,{8}7/4-8[8:1],{16}B1,B5,4,7,6,5,
{8}4/2-5[8:1],{16}A3,E8,2,6,7,8,{8}4/1v6[8:1],{16}D7,E4,1,5,4,3,
{8}2/7h[8:1],{16}8,7,1,8,2,1,3,8,4,7,5,6,{8}4,
{16}8b/B3f,,,4b/E1f,,,{8}6b/E5f,{16},2b/B8f,{32},,,,7b/1,6,5,4,3,2,1,8,
{8}7bx/3b,{16}1-6[8:1],2,3,4,{8}5/1,4h[8:1],{16}7,8/6,,3,4,2,
{8}5h[8:1],{16}4<7[8:1],3,2,1,{8}8/4,2h[8:1],{16}3,4/1,,8,7,1,
{8}6/2h[8:1],{16}5-2[8:1],6,7,8,{8}1/5,8h[8:1],{16}3,4/2,,7,8,6,
{8}1/5,{16}3,1/2,,6,{8}7/8,1w5[8:1],8/2,{4}1b,
{8}4xz8b[8:1]/5xs1b[8:1],3/6,{4}E5f,{8}2h[4:1],{16}3,4,5,6,7,8,
{8}2/1,{16}3,5,4-8[8:1],6,{8}5-7[8:1],4-2[8:1],5-1[8:1],4,5,
3b,{16}7,8,7,8,{8}6b/1x,{16}2,1,2,1,{4}3b/8xh[4:1],
{24}7,6,5,8,7,6,1,8,7,2,1,8,{32}3,2,1,8,7,6,5,4,{4}3/1p5b[8:1]*q5b[8:1],
{1}1b/B5/Cf/B1,
E
