&title=Last Celebration
&artist=Laur vs CK
&first=0.02
&des=Benren
&des_5=Benren
&lv_5=14+ | 14.6
&inote_5=(238){1},
{16}
,,,,3,,,,1bh[4:21]/Cf,,,,,,,,
B1,,,,B7,,,,,,,,B5,,,,B3
,,,,,,,,E1,,,,E7,,,,
,,,,B6,,,,B4,,,,,,,,
E3,,,,E2,,,,E1,,,,E8,,,,
E7,,,,,,B5,,B4,,,,E1/B8/B1,,,,
,,,,6,,,,8bh[4:21]/Cf,,,,,,,,
B8,,,,B2,,,,,,,,B4,,,,B6
,,,,,,,,E1,,,,E3,,,,
,,,,D5,,,,E4,,,,E3,,,,
E2,,,,E8,,,,E7,,,,E6,,,,
Chf[4:3],,,,,,,,,,,,,,,,
,,,,,,,,1x/8x,,2,,6,,,,
6/4,,5,,4/6,,3,,6/4,,,,6/3,,2,,
1/6,,7,,6/1,,,,6/2,,3,,6/4,,4,,
3x/6xh[8:1],,5h[8:1],,4h[8:1],,3h[8:1],,1,,8,,2/7,,,,
2/4,,3,,4/2,,5,,2/4,,,,2/5,,6,,
7/2,,1,,2/7,,,,2/7,,6,,2/5,,3,,
2x/4x,,2,,6/1,,6,,7x/3x,,2,,1x/8x,,,,
8/3,,2,,1/8,,7,,1/8,,,,8/2,,3,,
4/8,,5,,4/8,,,,4/8,,3,,2/8,,7,,
6x/2xh[8:1],,1h[8:1],,8h[8:1],,7h[8:1],,1,,1,,2/8,,8,,
7/3,,3,,5,4,5,,6,,4,,3,,6,,
4x,5,4,5,4,5,3x,6,3,6,3,6,2x,7,2,7,
2,7,1x,8,1xh[32:1],8xh[32:1],1xh[32:1],8xh[32:1],1xw5[16:6],,,,,,,,
,,,,,,4,5,3,,7,,1,,,,
2x/6x,,,,1/6,,1p4[8:3],,6x,,,,6,,,,
6,,,,6/3x,,,,6/4,,,,6/5,,5h[4:1],,
6,,,,6/4xh[4:1],,,,3h[4:1],,,,2,,,,
1x/7xqq4[4:3],,,,1,,,,1,,,,2,,,,
2,,,,2/5,,,,1/5xp8[4:1],,,,2,,,,
3,,,,4xq1[4:1]/7x,,,,7,,,,6,,,,
5xq7[4:2]/1x,,,,1,,,,1,,,,1,,,,
1x/7xh[4:1],,,,5,,,,8x/4x>8[4:1],,,,7,,,,
6,,,,5x<1[4:1]/1x,,,,2,,,,3,,,,
4xh[4:1]/8x,,,,7,,,,6,,6,,2,,2,,
8h[4:1],,,,1,,,,{12}2x,4,3,7,5,6,
3,5,4,7,5,6,2,4,3,6,4,5,
{16}3xh[4:5],,,,,,,,,,,,,,,,
,,,,C,,,,E8/B7/E7,,,,B3,,,,
B4,,,,E1/B8,,,,B2,,,,B3,,,,
E7/B6,,,,B1,,,,B2,,,,B8/E8,,E3,B3,
B4,,E7,,B2/E2,,,,E5/B5,,,,B2,,,,
B1,,,,E7/B6,,,,B4,,,,B3,,,,
E8/B8,,,,E5,,,,B3,,B6,,{32}B1,B8,E1,,,,,,
{16},,,,,,,,E2/B2/E3,,,,B6,,,,
B5,,,,E1/B1,,,,B7,,,,B6,,,,
E3/B3,,,,B8,,,,B7,,,,B1/E2,,E7,B6,
B5,,E3,,E8/B7,,,,E4/D4,,,,E6/D6,,,,
E1,,B7,,B2,,,,{12}E4,B4,B5,{16}E6,,,,
Chf[4:3],,,,,,,,,,,,,,,,
,,,,,,,,1xbv4[8:1]*v6[8:1],,,,1x,,,,
3x/7x,,6,5,7,,3,4,2-6[8:1],,,,2/6,,7,,
8-4[8:1],,1,,2xq6[8:1],,,,6,,7,,8,,2x,1,
2,,3,,6,,5,,8bv5[8:1]*v3[8:1]/4x,,,,8x,,,,
6x/2x,,3,4,2,,6,5,7-3[8:1],,,,7/3,,2,,
1q5[8:1],,8,,7xp3[8:1],,,,7x/2x,,1,,8s4[16:5]*z4[16:5],,,,
,,,,,,,,2bv5[8:1]*v7[8:1]/6b,,,,2x,,,,
4x/8x,,6,5,7,,4,5,3xv8[8:1],,,,3/8,,7,,
6x,,5,,4x/1xq5[8:1],,,,1/5,,6,,3x/7x,,8x,1,
8,,7,,3,,4,,5x-2[8:1]/7x,,,,5<8[8:1]/8,,,,
1x/5x,,2,,3x-5[8:1],,,,3/7-3[8:1],,,,7/1,,,,
1x/5x,,1,,2/8,,2,,3/7,,7,,{24}1xb,2x,3x,7xb,6x,5x,
2xb,3x,4x,8xb,7x,6x,1xbh,2xh,3xh,7xbh,6xh,5xh,{16}4xh/Cf,,,,,,,,
,,,,E1/B8,,,,,,,,,,,,
4qq1[4:5],,,,,,,,,,,,E7/B6,,,,
,,,,,,,,7,,,,,,1,,
1h[8:17],,,,E3,,,,E1,,,,E7,,,,
Ch[4:3],,,,,,,,,,,,,,,,
,,,,,,,,1x,,5,,3,,6,,
4,,7,,2,,8,1,8,,7,,2,,6,,
4h[8:3],,,,,,6,,5,,7,,1xh[4:1],,,,
,,2h[4:1]/8h[4:1],,,,,,5,,1h[16:1],,6,,2h[16:1],,
7,,3h[16:1],,8,,4h[16:1],,1,,5h[16:1],,8,,8,,
1x/7xh[4:1],,,,6h[4:1],,,,5h[4:1],,,,4>1[16:5]*<7[16:5],,,,
,,,,,,,,C,,,,,,,,
E2,,,,D6,,,,,,{32},,E7,,{16}B6,,,,
B1/E1,,,,,,{32}B4,,{16}E4,D4,,E6,{32},B7,{16}E8,,,,
,,,,B3,,B5,,B1,,,,,,A6,,
D4,,B7,{32},B1,E1,,{16},,,,,E7/B7,,,,E2,B2,
E3,,,,,,,,,,,,3,4,3,4,
3,,5,4,6x,,7,,8b/2b,,3,,4/7,,6,,
2>5[8:1]/5,,,,2x<7[8:1]/6x,,,,2-6b[8:1],,,,2b,,,,
8xb/4xb,,7,,6/2,,3,,4/7<4[8:1],,7,,7x>2[8:1]/3x,,,,
7-3b[8:1],,,,7b,,,,1bw5[4:3],,,,,,,,
,,,,,,,,,,,,6xh[4:1],,,,
7h[4:1],,,,8h[4:1],,,,1h[4:1],,,,2h[4:1],,,,
3h[4:1],,,,4h[4:1],,,,C,,,,,,,E6,
B5,,,,E3/A2,,,,,,E7,B6,E6,,,,
B1/E1,,,,,,E3,B3,{32}E4,,,,B6,,,B1,E2,,,,,,,,
{16},,,,B6,,B4,,B8/E1,,,,,,B5,,
{32}B3,,,,E7,,,A1,E2,,,,,,,,,,,,A7/E8/B7,,,,,,,,B1,,B2,,
{16}E3,,,,,,,,,,,,B6,,,,
,,,,4,,5,,3h[4:2],,,,8,,,,
7,,,,6h[4:2]/1,,,,2,,,,3,,,,
4h[4:2]/8,,,,7,,,,6,,,,4,5,4h[8:3],,
,,,,6,,5,,7h[4:1],,,,8h[32:10],,,,
1h[4:1],,,,2h[4:2],,,,,,,,7x,,6,,
4x,5,4,5,4x,5,4,5,4x,5,4,,7x,8,7,,
2x,1,2,,6x,5,6h[8:1],,Cf,,,,,,,,
,,,,E2/B2,,,,,,,,B7,,,,
B3/E3,,,,,,,,B4,,E7,B7,E8,,,,
,,,,E6,,,,B3/E3,,,,,,,,
E8,,B3,B4,E5,,,,,,,,E7,,B1,B2,
E3,,,,E6,,,,B3,,,,6x,5,6,5,
6,,4,5,3,,2,,1bh[4:1]/5b,,,,5x,6/2,3/7,4/8,
1x-6[8:1]/5x,,,,1/4x-1[8:1],,,,4/7x-4[8:1],,,,1x/7,,,,
2b-5[8:1],,,,2/1x-6[8:1],,,,1/3x-8[8:1],,,,5x/3b,,,,
1x/6xh[4:1],,,,2,,3,,4x/8xV64[4:1],,,,3/8,,3,,
2,,2,,1bq5[8:1],,,,1/7p3[8:1],,,,7/2,,,,
8bw4b[8:7],,,,,,,,,,,,,,,,
,,,,,,,,4v1[8:5]/6v1[8:5],,,,,,,,
,,,,,,,,,,,,2x/8x,,,,
1b-3[8:1]/5b-7[8:1],,,,1-5b[8:1]/5,,,,1/5,,,,3xb-5[8:1]/7xb-1[8:1],,,,
3/7-3b[8:1],,,,7/3,,,,1xb,,2/8,,3-5[8:1]/7-5[8:1],,,,
3-1v4b[16:5]/7-1v6b[16:5],,,,3b/7b,,,,,,,,3x,,2,,
1x-5[8:1]/7x-1[8:1],,,,1/7-3[8:1],,,,7x/3x,,2,,1h[4:1],,,,
4x,5,6,7,8xh[4:1]/2x,,,,4h[8:1],,,,3h[8:1]/5h[8:1],,,,
2v4[8:1]/6v8[8:1],,,,2b/6b,,,,1x/5x,,,,2,,3,,
8b-6[8:1]/4b-2[8:1],,,,8-4b[8:1]/4,,,,8/4,,,,6xb-4[8:1]/2xb-8[8:1],,,,
6/2-6b[8:1],,,,2/6,,,,8xb,,7/1,,6-4[8:1]/2-4[8:1],,,,
6-8v5b[16:5]/2-8v3b[16:5],,,,6b/2b,,,,,,,,6x,,7,,
8x-4[8:1]/2x-8[8:1],,,,8/2-6[8:1],,,,2x/6x,,7,,8h[4:1],,,,
5x,4,3,2,1xh[4:1]/7x,,,,5,,5,,4/6,,4/6,,
3x,7,2,8,1bh[4:2],,,,,,,,,,,,
Cf,,,,,,,,,,,,B3/E3,,,,
{32}
,,,,,,,,B8,,,,E2,,,,E7,,,,,,,,,,,,E4,,,,
E5,,,,,,,E7,B6,,,,,,,,E1,,,,,,,,E3,,,,,,,,
E6/B5,,,,,,,,,,,,E4,,,,B5,,,,,,,,E3,,,,,,,,
E1,,,,,,,,E7,,,,,,,,C,,,,,,,,E3,,,,E5,,,,
{16}
E4,,,,6,,6,,4x,5,4,5,3x,,2,,
1b-5[8:1]/7b,,,,1/6-1[8:1],,,,6/2-6[8:1],,,,2/8V64b[16:3],,,,
8x/4x,,,,3,,2,,1bV35[16:3]/5b,,,,1x/6x,,7,,
8x-4b[8:1],,,,8-2b[8:1]*-3[8:1],,,,8-6b[8:1]*-5[8:1],,,,8,,,,
{12}
8xb,,,2x,4,3,6,5,7,
3,4,2,7,5,6,2,4,3,{16}8b,7,6,5,8,1,2,3,
4/5,6,7,8,2b,1,2,1,2,1,2,1,2,1,2,1,
3bqq8[4:9]*pp6[4:9],,,,,,,,,,,,,,,,
,,,,,,,,,,,,,,,,
,,,,,,,,,,,,,,,,
6bV42V46[4:9]*V82V86[4:9],,,,,,,,,,,,,,,,
,,,,,,,,,,,,,,,,
,,,,,,,,,,,,1x/7x,,,,
2b-4[8:1]/5b,,5,,2-8[8:1]/6,,6,,7/2,,7,,6xb-8[8:1]/1xb,,1x,,
2x/6x-4[8:1],,2,,3x/6x,,3,,1xb-3[8:1]/5xb,,5x,,6/1-5[8:1],,6,,
7/1,,7,,8b-6[8:1]/3xb,,3x,,2/8-4[8:1],,2,,1/8,,1,,
2xb-6[8:1]/6xb,,6,,2/7,,7,,8x,4,8,4,7xb-3[8:1],,3,,
2/7,,2,,1x,5,1,5,3xb,,4,,5/6,,7,,
1x,8,1,8,{32}2xb,3,4,5,6,7,8,1,2xb,3,4,5,
6,7,8,1,2xb,3,4,5,6,7,8,1,2xb/B6/E6f/B5/D6,,,,
,,,,,,,,7xb/B3/E4f/B4/D4,,,,,,,,
,,,,1xbw5b[8:5]/B5f/E6/E5/A5,,,,,,,,,,,,
,,,,,,,,,,,,,,,,
