&title=BOW AND ARROW
&artist=米津玄師
&first=0.02
&des=ここまで、ここまで
&clock_count=4
&lv_5=13+
&inote_5=(180)
{8},,,,,,,,,,,,,,,{16}B5,B4,
{8}Cf,,E3,,E4,,E5,,
{8}7,7,7,,3,3,3,,
{8}C,,E7,,E6,,E5,,
{8}2,2,2,,6,6,6,,
{8}3x/4,,5x/4,,2x/4,,6x/4,,
{8}7x/C,7x,7x/E1,,3x/C,3x,3x/E5,,
{8}6xh[8:1]/5,,4xh[8:1]/5,,7xh[8:1]/5,4,{16}3x,5,3,5,
{8}1^6[8:1],,1,5w1[8:1],,{16}5,,,,,,
{16}6b/4b,,,,7,,5,6,5,,7,,3h[8:2],,,,
{8}1^6[8:1],,2,,8-5[8:1],,7,,
{16}4/8,,,,7,,4,5,3-7[8:1],,7,,7,,,,
{8}6<1[8:1],8^3[8:1],2^5[8:1],4^7[8:1],,,1,1,
{16}2/8,,,,2,,4,3,4,,2,,5h[8:2],,,,
{8}3s7[4:1],,6z2[4:1],,,,,,
{16}5/1,,,,2,,5,4,6-2[8:1],,2,,2,,,,
{8}3>8[8:1],1^6[8:1],7^4[8:1],5^2[8:1],,,8,8,
{8}7h[8:3]/1,,,5h[8:5],,,,,
{8}8qq8[8:3],,,,,,3x,3,
{8}2h[8:3]/8,,,4h[8:5],,,,,
{8}1pp1[8:3],,,,,,5x,5,
{8}3h[8:3]/4,,,2h[8:5],,,,,
{8}3pp6[8:4],,,,,,7x,,
{8}6/5h[8:3],,,4h[8:5],,{16}3h[16:1],,,3h[16:1],,,
{8}2q7[8:2],,Chf[8:2],,,,,,
{8}4xh[8:3]/8x,,{16}6,,6,5,{8}7h[8:2],8,8x,,
{8}6h[8:2]/2,,{16}4,,4,5,{8}3h[8:2],2,2x,,
{8}8h[8:2]/2,,{16}5,,5,6,{8}4h[8:2],1,1x,,
{8}5p4[8:2],,,,,8,7,6,
{8}5xh[8:3]/1x,,{16}3,,3,4,{8}2h[4:1],3,1x,,
{8}3h[8:2]/7,,{16}5,,5,4,{8}6h[8:2],7,1x,,
{8}3h[8:2]/8,,{16}4,,4,3,{8}5h[8:2],1,3x,5x,
{8}7x-1^8-2[16:6],,,,,3x,4x,5-7[8:1],
{8}6b,,,5-7[8:1],6,,,5,
{8}6pp5[8:3],,8-4[8:1],,,,,5-8[8:1],
{8}6,,,5-8[8:1],6,,,5,
{8}6pp4[8:3],,8-3[8:1],,,,,5x-1[8:1],
{8}6b,,,5-1[8:1],6b,,,8x,8x,
{8},7h[8:1]/5,,5h[8:1]/4,,4h[8:1]/2,1x,1x,
{8},2h[8:1]/4,,45,45,{16}A6,A7,A3,A2,
{8}Ch[8:4],,,,,,{16}1,8,2,7,
{8}1b,6-4[8:1],8x/7x,,{16}2h[16:3],,,3h[16:3],,,4,,
{8}6b,7-4[8:1],8x/1x,,{16}2h[16:3],,,3h[16:3],,,4,,
{8}7b,8-4[8:1],1x/2x,,{16}2h[16:3],,,3h[16:3],,,4,,
{8}6b,2q5[8:3],8,7-4[8:1],,,,,
{8}2b>5[8:1],6<1[8:1],2,6,,2>5[8:1],5<8b[8:1],2,
{8}8b,,5<3[8:2],8,,4h[8:2],,,
{8}4b>1[8:1],8<5[8:1],4,8,,8<5[8:1],5>6b[8:3],8,
{8},,4x>2^7^5[8:2],,,,,,
{8}5b/1b,2^8[8:1],3x/4x,,{16}5h[16:3],,,6h[16:3],,,7h[16:2],,
{8}2b,3^8[8:1],4x/5x,,{16}5h[16:3],,,6h[16:3],,,7h[16:2],,
{8}3b,4p8[8:1],5x/6x,,{16}5h[16:3],,,6h[16:3],,,7h[16:2],,
{8}2bx,6xb>2b[32:5]/3xb,,6,E1f,,,,
{8}8b-4[8:1],,2/8,1,8>3[8:1],3<6[8:1],,,
{8}1b-5[8:1],,1/3,2,1>4[8:1],4<7[8:1],,,
{8}8bx<1b[8:4],,,,,,,,
{8}5b-8b[8:4]/4b-1b[8:4],,,,,,,,
{16}2b/7b,,,,1,,4,3,4,,2,,6h[8:2],,,,
{8}7>3[16:3],,6,,5p1[8:1]*q1[8:1],,5,,
{16}8/2,,,,3,,6,5,7-3[8:1],,1,,3xh,,,,
{8}4>1[8:1],2^7[8:1],8^5[8:1],6^3[8:1],,,1,8,
{16}7/2,,,,8,,5,6,5,,7,,1h[8:2],,,,
{8}8z4[4:1],,5s1[4:1],,,,,,
{16}3/8,,,,5,,2,8,1-5[8:1],,6,,4xh,,,,
{8}6h[8:1],7h[8:1],8h[8:1],1h[8:1],2xh[8:1],3xh[8:1],4xv7-5-1[8:14],5xv2-4-8[8:13],
