&title=유령의 축제2
&artist=Brandy
&first=0.02
&des=노바
&lv_5=12+
&inote_5=(136)
{1},
{32},,,,,,,,,,,,,,,,,,,,,,,4p5[8:23]*v5[8:23],,,,,,,,,
{1},
{1},
{1},
{4},1-5[4:1],1h[4:1],,
{4}2-6[4:1],2h[4:1],,3-7[4:1],
{4}3h[4:1],,4-8[4:1],4h[4:1],
{4},5-1[4:1],5h[4:1],,
{4}6-2[4:1],6h[4:1],,7-3[4:1],
{4}7h[4:1],,8-4[4:1],8h[4:1],
{8},,1-5[4:1],1,2,3,4,,
{4}2-6[4:1],2h[4:1],,{16}25,,3,4,
{16}3,,6,5,6,,2,1,{8}2b>5[8:1],1,8,7b>2[8:1],
{8}6,5,4b<7[8:1],3,2,1b>4[8:1],8,7,
{4}6-4[24:1]*-4[24:1],7-3[24:1]*-3[24:1],8-2[24:1]*-2[24:1],7-3[24:1]*-3[24:1],
{4}6-4[24:1]*-4[24:1],7-3[24:1]*-3[24:1],8-2[24:1]*-2[24:1],7qq3[16:6]*pp3[16:6],
{4}7,,,8,
{16}1V38[16:3],,4,,5,,6,,7h[8:3],,1,2,3,,4,,
{16}6,5,6,,74,,6,4,6,,73,,6,3,6,,
{16}1V38[16:3],,4,,5,,6,,7h[8:3],,1,2,3,,4,,
{16}2,1,2,,7,8,7,,2>5[8:1],2,1h[16:1],,8h[16:1],,7h[16:1],,
{16}6V48[16:3],,4,,3,,2,,1h[8:3],,7,6,5,,4,,
{16}3,4,3,,25,,3,5,3,,26,,3,6,3,,
{16}6V48[16:3],,4,,3,,2,,1h[8:3],,7,6,5,,4,,
{16}2>5[8:1],,5,,6,6,,7-4[8:1],,4,4,,3,,3,,
{4}2-4[24:1]*-4[24:1],1-5[24:1]*-5[24:1],8-6[24:1]*-6[24:1],1-5[24:1]*-5[24:1],
{4}2-4[24:1]*-4[24:1],1pp5[4:1],{8}1,8,7,6,
{4}5-7[24:1]*-7[24:1],4-8[24:1]*-8[24:1],3-1[24:1]*-1[24:1],4qq8[16:6]*pp8[16:6],
{4}4,,2-6[8:1]/7-3[8:1],27,
(126)
{12}1b/8b,2,3,4,5,6,2/7,3,4,5,6,7,
(116)
{12}1b/8b,2,3,4,5,6,2/7,3,4,5,6,7,
(106)
{12}1b/8b,2,3,4,5,6,
(102)
{12}2b/7b,3,4,5,6,7,
(126)
{12}2b/5b,3,4,35,4,5,46,5,6,57,6,7,
(136)
{4}8-4[8:1]/4,84,3>1[8:1]/5<7[8:1],35,
{16}3h,8h,3h,8h,2h,5h,2h,5h,3h,6h,3h,6h,4h,7h,4h,7h,
{16}2b,1,3,8,4,7,5,6,4,5,3,4,2,5,1,6,
{16}8b,7,1,6,2,5,3,4,2,5,4,5,2,6,5,6,
{16}2,4,3,4,2,,51,,6,8,7,8,6,,51,,
{16}2,3,4,7,6,5,1,1,8,2,8,2,7,1,7,1,
{16}7b,8,6,1,5,2,4,3,5,4,6,5,7,4,8,3,
{16}1b,2,8,3,7,4,6,5,7,4,5,4,7,3,4,3,
{4}6q2[32:3],4>7[6:1],5q1[32:3],3,
{8}8-4[8:1]/4,7,8/2>5[8:1],1,2/5>2[8:1],6,57,6,
{16}15,,,73,,{32}28,37,46,5,,,{16}84,,,62,,{32}71,62,53,4,,,
{16}1,5,1h[2:1],,,,,,,,5b,,,,,,
{8}3h[8:3],4,5,6h[8:3],5,4,3h[4:1],4,
{16}5,4,4,4,6,4,4,4,7,4,4,4,8,4,4,4,
{8}7h[8:3],5,3,1h[8:3],4,6,8-4[8:1],5,
{16}3/8<5[8:1],3,,,2/8>3[8:1],2,,,7/8-4[8:1],7,,,68,,,,
{16}7,8,6,,15,,3,4,2,,15,,6,5,7,,
{16}84,,2,1,3,,84,,7,8,6,,15,,24,,
{16}3,3,4,,25,,6,6,5,,47,,12,,38,,
{12}7b/4b,6,5,64,5,4,53,4,3,42,3,2,
{16}1q5[8:1],,8,,17,,6-2[8:1],6,5,,7,,8,,8,1,
{16}8p4[8:1],,1,,28,,3-7[8:1],3,4,,2,,1,,18,,
{8}2-6[8:1],2,1-5[8:1],1,8-4[8:1],8,7,7,
{8}3b-8[8:1],2,7-3[8:1],6,7b/8b-4[8:1],1,8b/1b,2,
{8}6b-1[8:1],7,2-6[8:1],3,2b/1b-5[8:1],8,1b/8b,7,
{4}6-8[24:1]*-8[24:1],5-1[24:1]*-1[24:1],4-2[24:1]*-2[24:1],5-1[24:1]*-1[24:1],
{4}6-8[24:1]*-8[24:1],5pp1[4:1],{8}5,4,3,2,
{4}1-3[24:1]*-3[24:1],8-4[24:1]*-4[24:1],7-5[24:1]*-5[24:1],8-4[24:1]*-4[24:1],
{4}1-3[24:1]*-3[24:1],8pp4[4:1],{8}8,7,6z2[4:3]*V48[4:3],5,
{1},
(146)
{16}1b/8b,,,,3qq5[16:5]/4,,2,1,3,,5,,6,,7,,
{16}7,5,8,5,1,5,2,5,3,5,2,5,1,5,8,5,
{16}7b-3[8:1],,7,,8-4[8:1],,8,,1-5[8:1],,1,,2,,2,,
{16}2,4,1,4,8,4,7,4,6,4,7,4,8,4,1,4,
{16}2b<7[8:1],,3,,5-8[12:1],,6,6,1-5[8:1],,2,,7<4[8:1],,8,,
{16}3,,1,,1-5[8:1],2,3-8[8:1],,1,,3,,{32}4,5,6,7,8,,,,
{16}2b,1,3,8,4,7,5,6,1,5,4,5,1,4,3,4,
{16}2b/5b,,16,,7,8,,65,,4,7,,38,,12,,
{16}3b/4b,,25,,6,1,,87,,6,5,,47,,38,,
{16}2bv5[8:1],,1,,8<5[8:1],,7,,2v8[8:1],,3,,5-8[8:1],,6,,
{16}1b-4[8:1],,2,,7qq5[8:1],,6,,2>5[8:1],,1,,{32}6,,7,,8,,,,
{16}7b-2[8:1],,6,,4v1[8:1],,3,,8v5[8:1],,7,,2-6[8:1],,3,,
{16}7b,,8h[4:1],,{32}6,5,4,3,2,,,,1h[8:1]/7,6,5,4,3,,,,1-5[8:1]/8,,,,36,,,,
{16}1b/5,,7-3[8:1],,68,,7b/1,,2>5[8:1],,14,,2b/6-1[8:1],,7,,
{16}6b/4,,3,,2-5[8:1]/8,,37,,2b/6>3[8:1],,7,7,6b,,8,,
{4}2p6[8:1],5<1[8:1]/2,3p7[8:1]/5,63,
{8}1>5[32:5],87,15,6,7h[4:1],{32}8,1,2,3,4,,,,65,,,,
{8}8<4[32:5],12,84,3,2h[4:1],{32}1,8,7,6,5,,,,34,,,,
{32}15,,,,37,,,,1,82,73,64,5,,,,84,,,,26,,,,8,71,62,53,4,,,,
{16}1-5[10.53#444:1]*-5[10.53#444:1],5<4[64:204]*<4[64:204],1,,,,,,,,,,,,,,
