&title=インフェルノシティ
&artist=Ponchi♪; はぁち
&first=0
&des=SeiKA
&lv_5=14
&inote_1=
&inote_5=(215)
{8},,,,,,,Ch[8:1],
{8}1bxh[1:2],,,,,,E5,E6,E7,E8,,,,,,,
{8}7h[4:7],,,,,,A6,A5,A4,A3,,,,,4>6[1:1],,
{4}5,5,5,5,5,5,5-3[8:1]*-7[8:1],,
{16}1,8,1,8,1,8,1,8,1,8,1,8,1,8,1,8,2,3,4,5,8,7,6,5,1/4h[8:3],,C,,,,8x,,
{8},1-4[8:1]/6-4[8:1],16,,,7-5[8:1]*-1[8:1],7,,,2-5[8:1]/4,2,6-1[8:1],6,4,4,83,
{8},2-8[8:1],2,4-6[8:1],4,7xw3[8:1],,,,{16}E6,E7,E8,E1,2x,3x,4x,5x,8b,,,,2,,
{8},8-5[8:1]/3-5[8:1],83,,,2-4[8:1]*-8[8:1],2,,,7-4[8:1]/5,7,3-8[8:1],3,5,5,16,
{8},7-1[8:1],7,5-3[8:1],5,2xw6[8:1],,,,{16}E4,E3,E2,E1,7x,6x,5x,4x,1b,,,,2x/4x,,
{8}1h[8:5],,,7<4[4:1],,,,3pp3[2:1],2h[8:5],,,,,,2x,3x/5x,
{8}7h[8:5],,,5>1[4:1],,,,6pp6[2:1],5h[8:5],,,,,,5x,4x/6x,
{8}2h[8:3],,,8h[4:1],,{16}5,7,5,7,4,6,4,6,3,5,3,5,2-5[8:1],,,,1,,,,8h[8:3],,
{16},,,,4,7,4,7,4z8[4:1]b,6,4,5,4bx,,,,,,,,,,1b-5[8:1]/7b-3[8:1],,,,,,,,,,
{8}2-8[8:1],4,2,,7-5[8:1],8,7,,1h[4:1],,4,2v4[8:1]/5-1[8:1],,,,,
{8}7-1[8:1],5,7,,2-4[8:1],1,2,,8h[4:1],,5,7<5[8:1]/4>1[8:1],,,,,
{8}4-7[8:1],1,4,,2>5[8:1],8,2,,6-8[8:1],6,4-2[8:1],4,1,1,38,{16}4,5,
{8}7b-3-5-1[2:1],,,,2,,2,,{16}38,,2,1,3V57[4:1],,,,7V13[4:1]b,,,,,,,,
{8}Ch[8:11],,,4h[8:1],,4h[8:1],,5h[8:1],,4h[8:1],,4>1[8:1],,,,,
{8}7/8h[8:11],,,5h[8:1],,5h[8:1],,4h[8:1],,5<8[8:1],,{32},1x,2x,3x,4x,,,,,,,,,,,,,,,,
{8}7h[8:11]/5,,,6h[8:1],,6h[8:1],,5h[8:1],,6h[8:1],,8-4[8:1],,,,,
{8}3>4[4:3]b/5bh[2:1],,,,,,,,Cf,,,,,,,,
{16}2/8,3,4,5,6,7,8,1,2,3,4/7,6,5,4,3,2,1,8,7,6,5,4,3,2,1x,,1x-6[8:1],,,,5x,,
{8}5xpp4[8:3],,4,,2,,1,,
{8}4/8h[8:3],,,6,6V84[2:1],,4,,3,,2h[4:1],,1<3[2:1],,,E4,E3,E2,E1,,,,3x-7[8:1]/7x-3[8:1],,
{8}Cf,,,,,,,,,2,83,14,5bh[4:1]/2,,{16}2x,1x,8x,7x,6x/3bx,5,2bxh[8:7]/4xh[8:9],,,,,,,,,,,,,,
{8},,8b,8b,1b/7b,1b/7b,2b/6b,2b/6b,3b-6[8:1]/5b,,6b,7b-2[8:1]b,,,,,
{16}4,5,4,5,4,5,3,5,3,5,3,5,2,5,2,5,2,,E1,,,,6,,6-2[8:1],,,,4>1[8:1],,,,
{16}8,7,6,,,,8bx-3[8:1],,,,8b/6bV47[8:3]b,,,,4b/6b,,,,,,,,,,1,8,1,8,1s5[4:5],8,1z5[8:9],8,
{8},,,,,,,,,,,,,3x/7x,,
{8}2-4[8:1],4-6[8:1],2,8b<3[4:1],,8b,,,1-3[8:1],3-5[8:1],1,7b-3[8:1],,7b,,,
{8}2-4[8:1],4-6[8:1],2,8bw4[8:1],,8b,,,2bh[8:1]/4h[8:1],,8bh[8:1]/7h[8:1],,1b-5[8:1]/2-4[8:1],,1/2b,,
{8}7xh[4:1],,5,5V38[4:1],,7,6,5,4h[8:3],,,1>4[8:1],,1<6[8:1],,1,,{16}25,,3,4,3,4,{8}1b-5[8:1],,,5,6bh[8:3],,,8,,{16}2,,2,,3,1,3,1,
{8}4xp8[4:1],,7,7,,5,5,,1V74[4:1],,2,2,3-8[8:1],,,,7,,15,2-5[8:1]/4,,2b/8b,,6bh[8:3],
{16},,,,E5,B4,B3,E3,E1,B8,B7,E7,A4,A3,A2,A1,
{8}7x-3[8:1],,4-8[8:1],,5-1[8:1],,2,2w6[8:1],,2b,,,4/7,,25,,
{16}7x,1,7,1,7,,2x,1,2,1,2,,5x,4,5-8[8:1]b,4-1[16:1],5,,Cf/E1/E5,,,,,,,,,,,,
{8}7V53[4:1],,7,1b>6[4:1],,1b,,,8-6[8:1],6-4[8:1],8,2b-6[8:1],,2b,,,
{8}7-5[8:1],5-3[8:1],7,1bw5[8:1],,1b,,,7bh[8:1]/5h[8:1],,1bh[8:1]/2h[8:1],,8bp4[8:1]/7v5[8:1],,8/7b,,
{8}2xh[4:1],,4,4V61[4:1],,2,3,4,5h[8:3],,,8<5[8:1]*-5[8:1],,8>3[8:1]*-3[8:1],,8,,{16}74,,6,5,6,5,7,5,7,5,8<1[2:1],,,,2bh[4:3]/8b,,,,,,,,,,,,{24}8bx,7x/3x,6x/4x,
{8}5x,B1/B2/B8/E1/E2,,6,5p7[4:1],,7>5[2:1],,,5,,7-4[8:1],7,,,2,{16}4,3,4,3,5b-7[8:1],,,,1,,2b-6[8:1],,,,2b/8b-4-7[4:1],,,,8b,,,,3-8[8:1],,3,,,,,,5h[4:1],,,,7b,,
{12},,78,,71,,72,,73,,74,,65,,75,,85,,15,,{24}25,1,8,7,6,5,4,3,
{16}2b,,,,,,,,8h[2:1]/4,,,,,,,,2h[8:3],,,,,,5hh[8:3],,,,,,8h[4:1],,,,
{16}3h[8:13],,,,,,,,,,,,7bh[8:7],,,,,,,,,,,,,,,,,,{32}15,26,37,48,1h[2:3],2,3,4,5,6,7,8,,2,3,4,5,6,7,8,,2,3,4,5,6,7,8,,2,3,4,5,6,7,8,,2,3,4,5,6,7,8,,2,3,4,5,6,7,8,,,,,Cf,,,,,,,,
{16}3>8[8:1]/8,,,,7,,6,,5-3[8:1],,8,,5-7[8:1],,1,,2v5[8:1],,,,1,,8,,7-1[8:1],,5,,7-4[8:1],,4,,
{16}3,,,,2-4[8:1]*-5[8:1],,1,,2-7[8:1]*-8[8:1],,,,2,,,,6bxh[2:1]/5bx,,,,8,,8,,1,7,1,7,2,8,3,1,
{16}4b<7[8:1],,,,3,,2,,1-3[8:1],,8,,1-5[8:1],,6,,7-2[8:1],,,,2,,3,,4-6[8:1],,1,,4-2[8:1],,8,,
{16}7,,,,5-8[8:1]*-7[8:1],,1,,5-2[8:1]*-3[8:1],,,,5,,,,7bxh[2:1]/1bx,,,,5,,5,,4,6,4,6,3,5,2-6[8:1]b,4,
{8}1bh[2:3],Cf/2xv5-3-8-6[2:3],,,,,,,,,,,,Ch[4:1],,,,
{8}2h[16:1]/4h[16:1],1h[16:1],8h[16:1],5h[16:1]/7h[16:1],4h[16:1],3h[16:1],8h[16:1]/2h[16:1],6h[16:1],{16}1,5,1,5,1,5,1,5,8b-4[8:1],,4bw8[8:1]b,,,,Cf,,
