&title=Antikythera
&artist=technoplanet
&first=0
&des=star night
&des_5=
&lv_5=14+
&inote_5=(220){4},,,,{32}2,
3,{16}4>2<8<6[16:59],{1},,,{4},,,{16},,{48}2,
3,4,5>4>3>2<1<8<7<6[16:43],{1},{4},,,{16},{24},{16}B3,
B4,B5,,,,,,,,,,,,,,,{2}4>7b[2:1],
Cf,
{8}6,4,,4,6,6h[4:1],,4,
7,6h[4:1],,4,{2}8<5[8:1],
{8}3,5,,5,3,3h[4:1],,5,
2,3h[4:1],,5,{2}1>4[8:1],
{16}8,7,6,5,,,,,2,3,4,5,,,,,8/5,
7/4,6/3,5/2,,,,,1/4,5/2,6/3,7/4,,,,,{1}8b-3-7-5[2:1],
{16}1,8,7,6,5,4,3,2,7/1,6,5,4,3,2,1,8,
{4}3b/7-4[8:1],{8}2,2-8[8:1],,5,{4}5h[2:1],
,7<4[4:1],4>1[4:1],8,
6h[2:1],8v3-5[8:3],{8},,,,7x,
7,5,5,{4}8h[2:1],{16}7,6,5,4,
{4}3-8[8:1],{8}7,6-4[8:1],,1,{4}2h[4:1],
{8}3,4/1,5,6,1<6[8:1],2,3,4,
{2}5b-3[8:1]*-2[8:1],7b-4[8:1]*-1[8:1],
{16}E2,E3,E4,E5,E6,E7,E8,E1,{4}1xh[4:1],7x-4[8:1],
{8}7b/2,2-8[8:1],,6/2,{4}6-2[8:1],6/1-6[8:1],
{8}1x,4h[8:3],,,{4}5x,2/8<2b[8:3],
{2}Cf,{16}1,2x,3,4,5,6,7,8,
{4}1b,{16}3,5,{8}4h[8:3],,,{4}7-5[8:1],
7/1>4[8:1],1,{12}7,5,6,3,5,4,
7,5,6,2,4,3,{16}8,7,6,5,{24}4/8b,7,6,5,4,3,
{1}2z6b[2:1]*v5[2:1],
{8}E5/B4,E6/B6,,2x,,5/3x,,6/4x,
7bh[8:3],,,8-2[8:1],,6-8[8:1],,4h[8:3],
,,{4}1,7/3,{16}5,5,5,5,
{8}5v8-2[2:1],,,6xh[4:1],,,{4}5xh[4:1],
{8},4,{4}4q8v6[2:1],{2}3b,
{8}2bh[8:3],,,1-7[8:1],,3-1[8:1],,5h[8:3],
,,{4}8,2/6,{16}4,4,4,4,
{8}4v1-7[2:1],,,3xh[4:1],,,{4}4xh[4:1],
{8},5,{4}5,{16}6b/4,7,8,1,{4}6x-3[8:1]/2x-7[8:1],
Cf,{8}8x-2[8:1],4,8,3,{16}7,6,{8}5-1[8:1],
,2bh[4:1],,8V27[4:1],3,8,,,{4}4/6x,
{16}3,5,3,5,2,6,{8}1-7[8:1],5x,1-3[8:1],
6,1-6[8:1],4,1-4-8[4:1],,1,,,{4}7b,
1b/5b,{8}4b/2b-4b[8:1],2b/4b-1b[8:1],,5,
,8x/6b,{4}8bx/6,{16}1,2,3,4,{4}5/7,
{16}8h[8:1]/7bh,6,{8}5,{16},,2bh/1h[8:1],3,{4}4,{24}1h[8:1]/8bh,7,6,5,,,,,,7h[8:1]/8bh,
1,2,{4}3h[4:1],{24}2,1,8,7,6,5,4/2,1,8,7,6,5,
{2}4/B8h[2:3]
||这是一个标记~
,B2h[2:3],
B7h[2:1],B3h[2:1],
{8}8h[4:1],,,7h[4:1],,,{4}6<3[1:1],
,5,{2}4h[4:1],
{8},,5/3,5/3,,7/4,,1/2,
{12}3b,8,8,4b,7,7,5b,6,6,8b,5,5,
{8}1b,{16}3,4,{8}3,8/2,{16}6,5,{8}6,1/7,{16}2,4,
{8}2,7h[4:1],,1,{4}1>4[8:1]*-7[8:1],1,
6x/5x,{12}7,6,5,8/4,1,2,3/8,7,6,
5/2,3,4,5/1,6,7,{2}5h[4:1]/8V25[4:1],
{16}8,7,{8}6,,4/3,{4}3/4<7[8:1],{16}1,2,{8}3,
,6/5,{4}6/5,{16}8-4b[8:1],7/1,{8}6/2,{4}8b,
1b,{8}7b/3b,3b/7bh[8:3],{16},,,,8,1,2,3,
{4}4h[4:1],{16}8,7,{8}6h[4:1],,1,{4}3-1[8:1],
8b/3b,{8}2b/6b,6b/2bh[8:3],{16},,,,1,8,7,6,
{4}5b,{8}7/3b,5b-7[8:1]/1-3[8:1],,5/1,,8/4,
8h[4:1]/4h[4:1],,,6h[4:1]/5h[4:1],,,{4}2h[4:1]/B4h[4:1],
{8},8h[4:1]/Ch[4:1],,,{2}6h[4:1]/1xs5[4:1],
{1}8b<3<8[2:7],
{16},,,,,E8,,,E1,,,E2,,,{8}E3,
{1}E4h[2:3],
,4>7>3[2:7],
,5h[1:1],
,5V71-3>5[4:13],
{2},4,
{4}4,4h[2:1],,,,3,
{2}2,
{1}1>6V42[4:11],
{2},8,
{1}7h[1:1],
{4},,B6,E5,
E4,,,B5,
B3,B6,E5,E4,
,B6,,C,
,B3,B5,E7,
E8,{8},,,,B3,B5,
{4}B4,B6,E5,B4,
,B3,,B6,
{2}B2/E3,B6/B5,
{8}3,4,5,6h[8:3],,,3,4,
{4}5h[4:1],4h[4:1],3h[4:1],2h[4:1],
{8}6,5,4,3h[8:3],,,6,5,
{4}4h[4:1],5h[4:1],6h[4:1],7h[4:1],
{8}E3,E4,E5,E6,,,7/5,6/4,
{4}3/5h[4:1],3h[4:1],4h[4:1],2h[2:1],
,3h[2:1],,8,
{2}1>6[2:1],7,
{12}B7,B6,B5,B2,B3,B4,E8,E7,E6,E3,E4,E5,
{2}8x<5-2[2:1],{4}2p6[4:1],1h[2:1],
{12},,,5,6,7,2,3,4,6,7,8,
{2}2h[2:1],8h[2:1],
{12}B2,B3,B4,B7,B6,B5,E2,E3,E4,E7,E6,E5,
{2}1x>4-7[2:1],{4}7q3[4:1],8h[2:1],
{12},,,4,3,2,7,6,5,3,2,1,
{2}7h[2:1],1h[2:1],
{12}7,6,5,3,2,1,7,6,5,2x,{24},{8}3x,
{4}4x>1[4:1],1x<6[4:1],5x,8xh[4:1],
{12}4,3,2,8,7,6,4,3,2,7x,{24},{8}6x,
{4}5x<8[4:1],8x>3[4:1],4x,1xh[4:1],
{12}5,6,7,1/8,2,3,5/4,6,7,2x/8,{24},{8}3x,
{4}4x>1[4:1],1x<6[4:1],5x,8xh[4:1],
{12}6,5,4,8/3,7,6,2/5,1,8,4/7,3,2,
{2}1h[16:15],5h[16:7],
{24}4b/8b,7/3,6/2,5/1s5[4:1],{4},,,{16},{48},{16}7b,
8,7,8,{8}6h[8:1],1,{16}7,8,7,8,{8}5h[8:1],1,
{16}7,8,7,8,{8}5h[8:1],1,{16}2,1,8,7,6,5,{8}4,
{16}6,5,6,5,{8}7h[8:1],4,{16}6,5,6,5,{8}8h[8:1],4,
{16}6,5,6,5,{8}8h[8:1],4,{16}4-8[8:1],3x,2x,1x,,,,,2,
1,2,1,{8}3h[8:1],8,{16}2,1,2,1,{8}4h[8:1],8,
{16}2,1,2,1,{8}4h[8:1],8,{16}7,8,1,2,3,4,{8}5,
{16}3,4,3,4,{8}2h[8:1],5,{16}3,4,3,4,{8}1h[8:1],5,
{16}3,4,3,4,{8}1h[8:1],5,{16}6,7,8,1,5,4,3,2,
{4}B8f/E8/E1,{12}3,4,2,6,5,7,{48}1,,,2,,,{16}3,4,
{4}5-1[8:1]/7-5[8:1],5/7-3[8:1],7,{8}8,1,
{4}4-8[8:1]/2-4[8:1],4/2-6[8:1],2,{16}8,7,6,5,
{12}4h[6:1],2,2,1h[6:1],3,3,8h[6:1],4,4,7-3[8:1],5,5,
{4}7,{16}2,4,{8}2,{16}5,4,{8}5,{16}3,5,{8}3,
{16}7,6,5,4,8,7,6,5,{24}1b,8,7,6,5,4,{32}8b,1,2,3,4,5,6,7,
{4}8h[4:3],E6h[2:1]/B5h[2:1]/B6h[2:1],{24},,,,,,,,,,,,7xh,
4xh,6xv5[12:5],3xqq1[8:3],5xh,2xh,,,,,,,,,,,,,,,,,,,{1}2bpp8[2:5]/6bpp4b[2:5],
{8},,,,,,,,,,,,,,,,8bx/4bx,
8bx/4bx,,5b/3b,,7b/4b,,8b/1b,
{32}E8f/E2f,B7/B2,B3/B6,E6/E4,{4},,{16},,{8}3/5,2/6,
1>3[8:1],{24}8,7,6,{8}1-7[8:1],{24}7,6,5,{8}1-5[8:1],{24}6,5,4,{4}1,
4b/6b,{12}2,1,2,7,8,7,3,4,3,
{16}6b,5,6,5,{24}7b,8,1,2,3,4,5/8,1,2,3,4,5,6-2[8:1],7,8,1,2,3,
{4}4/6b,{16}1,3,1,3,8,2,8,2,8x-6[8:1],1,8x,1,
{8}8x-2[8:1],{24}2,3,4,,,,3,4,5,8,7,6,5,4,3,2,1,8,7,6,5,
{12}4/2b,2,2,4,4,4,6,6,6,8,8,8,
{8}2b,{16}3,4,{8}3,1/7b,{16}6,5,{8}6,{4}2b-5[8:1]/8-4[8:1],
2/8b-6[8:1],8/1-3[8:1]*-5[8:1],1,{16}6,4,6,4,
{12}7,7,7,1,1,1,3,3,3,{48}5,,,6,,,{16}7,8,
{4}1bh[4:1],{16}5,2,5,2,7b,4,7,4,1,3,1,3,
{24}1,8,7,6,5,4,3/1,8,7,6,5,4,{12}3b/1h[24:1],1h[24:1],1h[24:1],8xh[24:1]/2h[24:1],8xh[24:1]/2h[24:1],8xh[24:1]/2h[24:1],
{1}3bV16[2:7]/7bV52b[2:7],
,,{4},,,{16},,{48}A7/A3,
D8`D4,A8`A4,D1`D5,A1`A5,D2`D6,
E
