&title=乙女のルートはひとつじゃない!
&artist=angela/TVアニメ「乙女ゲームの破滅フラグしかない悪役令嬢に転生してしまった…」OPテーマ
&first=1.66
&des_5=Ragna
&lv_5=13
&des=Ragna
&wholebpm=192
&demo_seek=46.3
&demo_len=19.2
&inote_5=(192){16}1,2,3,4,5,{4}
7h[8:1]/6h[8:1],7h[8:1]/5h[8:1],7h[8:1]/4h[8:1],7h[8:1]/3h[8:1],
1h[8:1]/5h[8:1],1h[8:1]/6h[8:1],1h[8:1]/7h[8:1],1h[8:1]/8h[8:1],
{16}27,36,45,,,,,,4h,3h,2h,1h,8h,7h,6h,5h,{4}
8b-4[8:1]/4b,3,2-5[8:1]/5,6,
7-3[8:1]/3,2,1-4[8:1]/4,5,
6-1[8:1]/5,2,4-8[8:1]/8,6,
5^8[8:1]/1,4^1[8:1],7-3[8:1],2-6[8:1],
8-5[8:1]*-3[8:1],8,{8}26,26,,1b/8b,
,3b/6,3/6b,3b/6,{4}3/6b,18,
5h[4:3]/3,3,2,2,1h[4:3]/4,4,6,6,
8<4[4:1]/2,4>8[4:1],8<4[4:1],4pp4[16:7],
8,8,8,15,
6h[4:1]/2,4,3h[4:1]/7,5,
7h[4:1]/1,4,2h[4:1]/8,5,
6h[4:1]/1h[4:1],,8h[4:1]/4h[4:1],{8},2b/7b,
,3/6b,3b/6,3/6b,3b/6,,18,,
2-5[8:1]/7,,6,6-1[8:1],,4^1[8:1],,8^5[8:1],
,4>5[8:3],,8,,,,,
74,6,25,3,74,6,25,3,
7-4[8:1]/4-8[8:1],,74,,15,,26,37,
4-8[8:1]/8,,7,7-4[8:1],,1^4[8:1],,5^8[8:1],
,1>8[8:3],,5b,,,,,
6h[4:1]/2h[4:1],,,,18,27,36,4b/5b,
,3b/6,3/6b,3b/6,3/6b,,,,
(184){4}1^4[2:1],,6,5^8[2:1],,1,
2,3,4q5[8:5],5,,,
8^5[2:1],,3,4^1[2:1],,6,
5<4[8:7]*p4[8:7],,,,,,
(192)18,27,36,4qq3[8:5]/5pp6[8:5],,,,,
18,27,36,4h[2:1]/5h[2:1],,,{16}4h,3h,2h,1h,
8h,7h,6h,5h,{8}84,,
3/7-3[8:1],3-7[8:1]/7,,1,1,1,,2-6[8:1]/6,
,8,8,8,5q4[16:3],7,,,
6-1[8:1],,3,3-8[8:1],,5-1[8:1],,4,
4bV28[4:1]*V68[4:1],,,,,,17,,
65,4,83,{16}2b,1,2,1,2,1,{8}2,,
34,5,61,{16}7b,8,7,8,7,8,{8}7,16,
16,,73,73,,2-6[8:1]/4-8[8:1],,2b/4b,
,,{16}1h,2h,3h,4h,5h,6h,7h,8h,{8}15,,
2-6[8:1]/6,2/6-2[8:1],,8,8,8,,7-4[8:1]/3-8[8:1],
,73,,15,62,7h[4:1]/3h[4:1],,,
3^8[8:1]/7,,6,6q2[8:1],,4>5[8:3],,5b,
,,,,8-4[8:1],,1pp8[16:5],,
5h[4:1],,,5^8[8:1],,,,2,
13,,7,86,,45,,3,
28,7,61,5,64,3,27,,
{16}1b,8,1,8,1,8,1,8,1,8,1,8,{8}1,,
7h[8:1],4h[8:1],6h[8:1],3h[8:1],5h[8:1],2h[8:1],6h[8:1],4h[8:1],
{4}7-2[8:1],3-6[8:1],7-2[8:1],3-6[8:1],
7qq8[16:5],4,1pp8[16:5],7,
5-8[8:1],51,{16}27,36,{8}45,2b/7b,,
1h[8:1],4h[8:1],3h[8:1],6h[8:1],5h[8:1],8h[8:1],3h[8:1],6h[8:1],
1h[8:1],5h[8:1],3h[8:1],7h[8:1],5h[8:1],1h[8:1],3h[8:1],7h[8:1],
{4}1-4[8:1],5-8[8:1],1-4[8:1],5-8[8:1],
1^4[8:1]*^6[8:1],,5b-2[8:1]*-8[8:1],5b,
{8}3-7[8:1]/7,3/7-3[8:1],,5,5,5,,2-5[8:1]/6-1[8:1],
,26,,84,73,6h[4:1]/2h[4:1],,,
2^7[8:1]/6,,5,5h[4:1],,4,,3bpp2[8:15]/6bqq7[8:15],
{1},,
{8},,,,3-8[8:1],,7p4[8:3],,
1h[4:1],,,1^4[8:1],,,,6,
75,,3,24,,18,,27,
6,45,3,24,1,78,6,1b-4[8:1]/5b-8[8:1],
,1b/5b,,3b/7b,3b/7b,,,,
{1},E
