&title=D/N/A
&artist=Azari
&first=-1.428
&des=X/T/C
&des_5=X/T/C
&lv_5=14+
&inote_5=(150){4},,,,C,
E1,{2}2h[8:1]/7h[16:3],
{8}1/6h[8:3],2,3,{16}3xh,4xh,{2}5xh[8:7]/7xh[4:1],
{8}6,7,8,{16}1xh,8xh,{2}7xh[4:1]/4xh[8:15],
{8}8,1,2,{32}3xh,B3,C,B7,{2}7xh,
{8}7,5,6,{16}7xh,6xh/3xh,{4}2x-8[8:1]/5x<8[8:1],2b/5b,
{32}1/7,D7,{16}A6,{8}3,1/7,3,{16}1/7h[8:3],,,3,,,{8}5,
{32}8/2,D3,{16}A3,{8}6,8/2,6,{16}8/2h[8:3],,,6,,,{8}4,
{32}1/7,E7,{16}B6,{8}4,1/7,4,{16}1/7h[8:3],,,3,,,{8}5,
{4}2h[48:1]/8h[48:1],5h[48:1]/3h[48:1],{8}6h[48:1]/8-4[8:1],7h[48:1]/1h[48:1],{4}8,
{16}3/B7h[8:3],,,2,{64},,,,,,,,1/E7h[8:21],D2,A2,D3,{4},,{16},3,
,,2,{64},,,,,,,,1/B6h[8:15],E2,B2,B3,{4},,{16},2,
,,1,{64},,,,,,,,8/B7h[8:9],E1,B1,B2,{4},,{16},{48}1b-4[8:1],
2,{24}3,,,,,{4}1bq5[8:1],1b,1h[4:1],
{8}7,{16}3,5,{8}3-1[8:1],7/1,{4}3/5h[4:1],{8}1,7,
8/2,{16}7,1,{8}7-5[8:1],5/3,{4}7/1h[4:1],{8}6,7,
{64}8/B2h[4:1],E8,B7,B6,,,,,,,,,,,,,8/E3h[4:3],D8,A7,D7,,,,,,,,,,,,,8/B3h[4:3],E8,B7,B6,,,,,,,,,,,,,8/B2h[4:3],D8,A7,D7,{16},,,{48}8b-5[8:1],
7,{24}6,,,,,{4}8bp4[8:1],8b,{8}5,6,
7/3,{16}4,6,{8}2,8,1/7,{16}6,8,,2,{8}8,
6/2,{16}8,4,{8}8,2/6,8b/C,{16}2,8,,6,{8}8,
1/7,{16}6,8,,8,{8}2,{16}1,6,7,8,{4}5pp5qq4[16:7],
5/1b,1b/A5,{64}1b/A5,B5,C,B1,,,,,{8}A8/A2,A7/A3,A6/A4,
A5/C,{16}3,7,{8}3,6,5/1,{16}3,8,,8,{8}5,
4/7,{16}6,2,{8}6,1,8b/C,{16}2,5,,5,{8}8,
{64}1b/B7h[4:1],E2,B2,B3,,,,,,,,,,,,,8b/E7h[4:3],E1,B1,B2,,,,,,,,,,,,,1b/B6h[4:3],E2,B2,B3,,,,,,,,,,,,,2b/B7h[4:3],E3,B3,B4,{16},,,{48}1b,
2,{24}3,{48},,,,,,,,2b,3,{24}4,{48},,,,,,,,3b,4,{24}5,{4},{16},,{24},{48}7x/E3h[1:1],
6x,{24}5x,,,,,{4}6x/B3,{8}7x/B2,6x/B3,5x/B2,6x/B3,
{4}E7h[1:2],3x/B6,{48}2x/B7,3x,{24}4x,,,,,,,,,,,{2}E3h[1:1],
{8}B7/B2,B6/B3,B7/B2,B6/B3,
{4}B7/B2,{8}E2,E3/E7,E4/E6,E5,E1,E8/E2,
{16}E7/E3,,,6,{8}3,2h[8:3]/Ch[8:3],{16},,,,,,,,1b,
8,8,8,8b,8,8,8,1b,1,1,8b,8,8,1b,1,
1b,8,8,8,8b,8,8,8,1b,1,1,8b,8,8,{48}1b,2,{12}3,
{16}7b,8,8,8,8b,8,8,8,7b,8,8,1b,8,8,{48}7b,6,{12}5,
{16}1b,1,1,1,8b,8,8,8,{4}8b>3[8:1],8b,
{32}7bxh[8:1]/2bxh[8:1],{96},,,,,,,,,,,,B7,1xh,,{48}C,{96}8xh,B2,,,{32}2bxh[8:1]/7bxh[8:1],{96},,,,,,,,,,,,B2,8xh,,{48}C,{96}1xh,B7,,,{8}7bx/2bx,{16}8,1b,{8}8-4[8:1],7/2,
8/4,{16}3,2,{8}1<8z4[8:1]*s5>4[8:1],8/7,1b,{16}A5/A4,D6,{8}A6/3xv8[8:1],2,
3/7-4[8:1],6,3/7,2,1,{16}2,3,{8}6/4qq4pp5[16:7],3,
{32}8b/4b,D8,{16}A7,{32},,,,8b/A4,D1,{16}A1,{64},,,,,,,,8b/A4,7/A3,6xh[32:7]/A2,A1,{16},,,{48}2b-6b[16:1],3,{24}4,{48},,6b,7,{12}8,
{4}2b/1xh[2:1],{32}2,D3,{16}A3,,,{8}4h[8:1],{16}6,5,{64}7,D7,{32}A6,{64},,,,2,D3,{32}A3,,,{8}5h[8:1],
{16}3,4,{64}2,D3,{32}A3,{64},,,,7,D7,{32}A6,,,{4}3h[4:1],{48}7b-3b[16:1],6,{24}5,{48},,3b,2,{12}1,
{4}7b/8xh[2:1],{32}7,D7,{16}A6,,,{8}5h[8:1],{16}3,4,{64}2,D3,{32}A3,{64},,,,7,D7,{32}A6,,,{8}4h[8:1],
{16}6,5,{64}7,D7,{32}A6,{64},,,,2,D3,{32}A3,,,{8}5,6,{4}7/4,
{8}4/3,{16}3,5,{8}3,3/6,3/4,{16}3,5,{8}3>1[8:1],3/6,
3>8[8:1],{16}7,6,{8}3>7[8:1],5,{4}3/4h[16:3],{48}8b/5b,6/1,{24}7/2,,,,,{8}5/6,
{16}6,4,{8}6,6/3,6/5,{16}6,4,{8}6<8[8:1],6/3,
6<1[8:1],{16}2,3,{8}6<2[8:1],4,{4}6/5h[16:1],{48}1b/4b,8/3,{24}7/2,,,,,{8}A2,
A3,A4,A5,{2}A6,
{8}2b,3b,4b,5b,{2}6b,
{16}7,7,{8}7,1/5,{16}8,6,7,6,6,6,5,6,{8}4,
7/3b,8,1,2,{4}3p6[8:1]/7p2[8:1],7/3,
4bh/8bh,6bh/2bh,{16}8bh/4bh,,,7bh/3bh,,,{8}6bh/2bh,
{4}4bh/8bh,{16}1bh,8bh,1bh,8bh,1bh,,,2bh/7bh,,,{8}6bh/3bh,
{4}3bh/1bh,8bh/6bh,{16}6bh/3bh,,,6bh/3bh,{32},,,,4bh,5bh,4bh,5bh,
{16}3bh,{32},,,,6bh,5bh,{16}7bh,{32},,,,3bh,4bh,{16}2bh,7bh,2bh,7bh,{4}2bh,
{32}2bxh[8:1]/7bxh[8:1],{96},,,,,,,,,,,,B2,8xh,,{48}C,{96}1xh,B7,,,{32}7bxh[8:1]/2bxh[8:1],{96},,,,,,,,,,,,B7,1xh,,{48}C,{96}8xh,B2,,,{8}2bxh/7bxh,{16}1,8b,{8}1-5[8:1],2/7,
1/5,{16}6,7,{8}8>1s5[8:1]*z4<5[8:1],1/2,8b,{16}A5/A4,D4,{8}A3/6x-1[8:1],7,
6/2v5[8:1],3,6/2,7,8,{16}7,6,{8}5pp5qq4[16:7],6,
{32}1b/5b,D2,{16}A2,{32},,,,1b/A5,D1,{16}A8,{64},,,,,,,,1b/A5,2/A6,3/A7,A8,{16},,,{48}2b-6b[16:1],3,{24}4,{48},,2b,3,{12}4,
{4}2b,{32}7,D7,{16}A6,,,{8}4h[8:1],{16}5,5,{64}1,D2,{32}A2,{64},,,,7,D7,{32}A6,,,{8}4h[8:1],
{16}5,3,{64}7,D7,{32}A6,{64},,,,1,D2,{32}A2,,,{4}C,{48}7b-3b[16:1],6,{24}5,{48},,7b,6,{12}5,
{4}7b,{32}2,D3,{16}A3,,,{8}5h[8:1],{16}4,4,{64}8,D8,{32}A7,{64},,,,2,D3,{32}A3,,,{8}5h[8:1],
{16}4,6,4,6,7,8,1b,3,2,3,3,3,4,3,
{8}5b,2,3/7b>1[8:1],4/6,5/7b,{16}6,7,{8}8b<6[8:1],1,
1/8b,2,3/7b>1[8:1],4/6,5/7b,{16}6,7,{8}8b>3[0.4##0.2],1,
8b/7,6,5/2b<8[8:1],3/6,2b/5,{16}3,2,{8}1b>3[8:1],8,
8/1b,7,6/2b<8[8:1],5/3,4/2b,{16}3,2,{8}1b<6[8:1],8,
1b/2,3,4/7b>1[8:1],6/3,7b/4,{16}6,7,{8}8b<6[8:1],1,
1/8b,2,3/7b>1[8:1],4/6,5/7b,{16}6,7,{8}8b>3[0.4##0.2],1,
8b/7,6,5/2b<8[8:1],3/6,2b/5,{16}3,2,{8}1b>3[8:1],8,
8/1b,6,7/4b,8,3b/7b,{16}7/2,1/6,{8}5b/8b,1,
8b/2h[16:1],{16}6,5,4b>8[4:1],3,2,1,{8}4b,{16}7,6,{8}5b<7[8:1],1,
5b/2,{16}4,5,6b<2[4:1],7,8,1,{8}6b,{16}3,4,{8}5b>3[8:1],1,
5b/8,{16}6,5,4b>8[4:1],3,2,1,{8}4b,{16}7,6,{8}5b<7[8:1],1,
5b/2,{16}4,5,6b<2[4:1],7,8,1,{8}6b,{16}3,4,{8}5b>3[8:1],1,
5b/8,{16}6,5,4b>8[4:1],3,2,1,{8}4b,{16}7,6,{8}5b<7[8:1],1,
5b/2,{16}4,5,6b<2[4:1],7,8,1,{8}6b,{16}3,4,{8}5b,1,
8b/4h[16:1],{16}1b,3,5b,3,5b,1,{8}8b/4,{48}8b,1b,2b,3b,4b,5b,{8}6,6,
7/2bh,2/7h,7/2bh,2/7h,8-5-8[4:1]/1bv4v1b[4:1],{16}2,7,1b/8,C,A4/D5/A5,Cf,
E
