&title=Noël (feat. uma)
&artist=モリモリあつし,uma
&first=0.298
&des=
&des_5=哈朗
&des_6=哈朗
&lv_5=14+
&lv_6=14
&inote_5=(220){4},{8},,3,6,{4}4h[2:1],
B6,E7,5h[2:1],B3,
E3,3h[2:1],B7/B8,D8/A8,
6h[2:1],B2/B1,D2/A1,7h[2:1],
8,1,2h[2:1],1,
8,6/5,5/4,{8}3,4,
{2}3h[2:1]/5-7v1[8:3],{4}Cf,4/8<6[8:1],
3,{8}5/4,6,{4}4,3v6[4:1],
6<1[4:1],5,6,{8}7/8,7/8,
{4}6/1s5[4:1],5s1[4:1],{8},,7x,2,
6x,3,5x,4,{4}6/3x,7/2x,
{8}7/8,8/1,{4}2h[4:1]/1h[4:1],{8},,1/2,1/8,
{4}8-6-4[4:1],{16}8,1,2,3,{4}A4f,5bx/3bx,
4/6h[8:1],5/7h[8:1],8h[8:1]/4>2q1[8:3],7h[8:1],
6h[8:1],2x/7x,6/3h[8:1],5/2h[8:1],
1h[8:1]/4pp8[8:3],2h[8:1],3h[8:1],7x/2xh[8:1],
2h[8:1]/E8/B8/B7,2h[8:1]/B8/E8/B7,3/6h[8:1],6h[8:1]/E4/B3/B4,
6h[8:1]/B4/E4/B3,4x/5x<1[4:1],{8}4,3,{4}2,
1/8<4[4:1],{8}1,2,{4}3,3b/4b,
{8}5/4,3,6,4,7,5,8,6,
{4}1,8b/7b,{8}1/8,7,2,6,
{16}3,5,4,5,{32}4x,3x,2x,1x,,,,,5x,6x,7x,8x,1x,2x,3x,4x,{4}5x/1bx,
{8},,7/8,{16}8,7,{4}8bh[4:1],1bh[4:1],
{8}2b,{16}1,2,{12}1x,8x,7x,6x,5x,4x,3x,2x,1x,
{4}8x/4x,Ch[2:1],,6h[4:1],
{8}4,{16},,,,4,5,{4}4h[4:1],3h[4:1],
2,1/8,7/6,5/4,
3h[4:1],6,{8}5,4,{4}7h[2:1],
{2}6h[4:1],{4}2h[2:1],3h[4:1],
,8h[2:1],{2}1h[4:1],
{4}4h[2:1],5h[4:1],,4/3,
{16}4,3,{24}4,3,,{12}4,3,4,{4}3,{8}5/3,5,
6/4,4,{4}5/6,{16}5,6,{24}5,6,,{12}5,6,5,
{4}6>2[4:1],6/5,7,8b/1b,
2/7,{16}5-1[16:3],,,4,{4}5,{8}3,2,
1,{16}8,1,{8}7x/4,7/4,6x/3,6/3,5x/2,5/2,
{16}4x/1,2,3,4,{32}8,7,6,5,,,,,8,1,2,3,4,5,6,7,{4}8x/4-6[16:3]*<8[8:3],
{8},,,,1h[8:1],5,2h[16:3],6,
3xh[8:1],7,{4}5/6h[4:1],{8}4,3,{4}2/5h[4:1],
{8}4,4h[16:5],,6,7/3,3,{4}1/7bx-5v6[4:1],
{2}8h[4:1],{4}8/2bxq3[4:1],1h[4:1],
{8},,7bx/8bx,7-5[8:1]/8-4[8:1],,,,,2bx/1bx,
2/1-6[8:1],{16},,A2,E3,E4,E5,E6,E7,{4}5x,
{8}6,6x/5,{4}4x/7,{8}2x/4,4x/2,{16},,6,4,
{4}5-7[8:1],3b-1[8:1],{8},,7>2[8:1],2>5[8:1],
{2}5-1[8:1],{4}8/2,{16}3,5,4,6,
3,5,4,6,3,5,4,6,{8}3x,5x,{32}4x,3,2,1,{8}8,
{32}5x,6,7,8,1,2,3,4,{4}1bq2[2:1]/5bq6[2:1],{12},,,,,,,,,A8,
A7,A6,A2,A3,A4,7bxh[4:1]/Cf,{24},,,,{8}5xh[4:1],
6,{4}6,3xh[4:1],{8}5xh[4:1],4,
{4}4,6xh[8:1]/3xh[8:1],{12}5x,4,5,4>8V24[2:1],,,{4}4x/5x,
{8}6x,6x,{4}5b,3bxh[4:1],
{8}1xh[4:1],2,{4}2,7xh[4:1],{8}1xh[4:1],8,
{4}8,2xh[8:1]/7xh[8:1],{12}1x,8,1,8V64<8[2:1],{24},,,,{8}8x/1x,
1x,2,2,{4}1b,2x/8xh[4:1],
{8}1x,1,{4}8,3x/7xh[4:1],{8}2x,2,
{4}7,6x/3x,{12}6x,5,6,5q6<2[2:1],,,{4}5x/4x,
{8}2x,3x,{4}4bh[4:1],5xh[4:1],
{8}3x-8[8:1],5,3,4,{4}5x,{8}5x-1[8:1],3,
5,4,{4}3x/8x,4xh[8:1]/7xh[8:1],6/5,
1b/3b,5b/4b,8b/6b,2b/7bxh[4:1],
{8}2,8,1,7,{4}1h[4:1],8h[4:1],
1h[4:1],8b,{8}2,1,2,1,
{4}2h[4:1],{8}8,{24}E3,B3,B4,{8}6/E5,6,{4}6x/5x,
{8}4,5,3,4,{4}2xh[4:1],1h[4:1],
8h[4:1],1x,{8}2/7,{24}E7/E3,B7/B3,B8/B4,{8}E1/E5,1x/5x,
{4}5x/1x,{8}4>1[8:1]/8<5[8:1],5/1,{4}4/8,5xh[8:1]/E1,
{8}6/E2,7,8/E3,7,{4}6/E4,4/7,
5/2,1xh[8:1]/E5,{8}2/E6,3,4/E7,3,
{4}2/E8,{8}1-5[8:1]/8-4[8:1],7/2,{4}1/8,6x/3x,
{8}4h[8:1],5h[8:1],3h[8:1],6h[8:1],2,2,7,7,
8/1,8/1,{16}2x,3,4,5,7x,6,5,4,1x,2,3,4,
7bx,8,1,2,3,4,5,6,7V51[4:3],8,1,2,,,,,,,,,{4}1V37[4:3],
3,4,
5,4h[2:1],,5,
{2}1h[4:1]/5h[2:1],{4}1>7[4:3],1,
,7-1[4:1],1-3[4:1],3-5[4:1],
5pp8[4:3],7,,,E6,
E7,{8}1/E8,2,{4}5h[4:1],
3h[4:1],6h[4:1],1h[4:1],8h[4:1],
4h[4:1],7h[4:1],2h[4:1],5h[4:1],
1h[4:1],2h[4:1],3h[4:1],4,
{8},,4,4,{12}6,5,6,5,{24},,,,,,,{8}6,
{4}6h[4:3]/Cfh[4:5],{1},{32}1,
8,7,6,,,,,{4}5bxh[4:1]/4bxh[4:1],
,8bx-6[8:1]/1bx-5[8:1],8b-4[8:1]/1b-3[8:1],8bx-6[8:1]/1bx-5[8:1],
1b/8b-4-7-5-1[4:3],{8}4,4,3,3,2,2,
{4}2-5b[8:1],2b/8b-4b[8:1],8b,{8}3-1[8:1],1,
3-5[8:1],5,{4}3,{8}7-5[8:1],5,7-1[8:1],1,
{4}7,{24}8b/2b,7,6,5,,,,,,1b/7b,2,3,{4}4,
{16}6,5,4,3,1,8,7,6,5/1,4/8,3/7,2/6,{4}1xh[8:1]/5x-8-4-1[8:3],
2xh[8:1],3xh[8:1],2x<2[8:3],E1/B1/E2,
B7/E7/B6,6x-2<3[4:3],3x,3x,
2x,1x,8x-5>4[16:3],8bx,
{8},,4/3,4/5,{12}6x,7,8h[3:1],1x,{24},,,,,,,{8}8x/1x,
8/1h[8:5],8,8,8,8,8,
{16}1,2,3,4,{4}8bxh[8:1],{2}8bxh[4:1]/Ch[4:1],
{4}4,4,C,5,
5,C,3,2,
C,6,7,C/B7/B6,
3,3,C/B2/B3,6,
6,3h[4:1],4h[4:1],{8}3,5,
{4}3,5/4,5/4,4h[4:1],
6h[4:1],{8}3,2,{4}1h[2:1],E7/B7/B6,
A7/A6/D7,7/1,6/8,{8}1,8,
{4}1,E3/B2/B3,A2/D3/A3,1h[4:1],
2h[4:1],3h[4:1],4h[4:1],5h[4:1],
{8}4,5,{4}6b-8[8:1]/3b-1[8:1],{8},,7x/2x,3x/6x,
{4}5x/4x,{16}4,5,4,5,{4}6b/3b,8b-4[8:1]/1b-5[8:1],
{8},,3/6,7/2,{4}1/8,{32}1w5[8:1],2,3,4,5,6,7,8,
{4}1x,7x-2[8:1],7/1b-4[8:1],1/3-6[8:1],
3/5-8[8:1],5/7-3[8:1],7/5-2[8:1],4/5-7[8:1],
3/5-3[8:1],2/5-8[8:1],5/1-3[8:1],5-7[8:1],
{8}5/1pp4[8:3],1,{4}1/8-4[8:1],{12},,,5,3,6,
{4}4>1>4[2:1],{12}5,6,7,8,7,6,5-8[8:1],,,{4}6/5-2[8:1],
5/4,{16}4x,3,2,1,7x,8,1,2,
3x,4,5,6,{8}7bx-1b[8:1]*-2b[8:1],7bx,{16},,,,3,4,5,6,
7,8,1,2,{8}3bx-6b[8:1]*-5b[8:1],3bx,{16},,,,7,8,1,2,
4,3,2,1,8,7,6,5,8/4z8b[4:1],3/7,2/6,1/5,{4}4/8z4b[4:1],
,Cf,{12},,,6x/5x,6x/5x,6x/5x,
{2}6xh[4:1]/5xh[4:1],{12}2x/1x,1x/2x,2x/1x,1x,8,7,
2,3,4,7,6,5,{2}4xh[2:1]/Ch[4:15],
{4},1,,,1,
,,1,
,,{2}1,
{4},1b,
E
&inote_6=(220){4},{8},,5,4,{4}3h[2:1],
6,6,7h[4:1],{8}4,{16}6,5,
{8}6,4,{4}3h[4:1],{8}6,{16}4,5,{8}4,3,
{2}5h[4:1]/2h[2:1],{32}E7,B6,,,,,,,{4}5/4,
3/5,5/2,5/1h[2:1],{8}8,8,
7,7,{4}6h[4:1]/2h[4:1],{8},,5/3,6/2,
{4}7/1,{16}8,1/7,2/6,3/5,{4}4bx,4bh[4:1],
3h[4:1],{8}5,5/3,{2}6/3>8[16:3],
{4}6<1[4:1],6/1V37[4:1],2,{8}4,4,
{16}8,1,8,1,{32}A8,B8,C,B4,{8}A4,{32}A1,B1,C,B5,{8}A5,4/6h[8:1],3,
4/2h[8:1],5,4/6h[8:1],3,{4}7h[8:1]/4h[8:1],5h[8:1]/2h[8:1],
{32}1/4,8,7,6,{8}5/4,{4}2h[4:1]/7xh[4:1],{8},,8/2,1/7,
{4}3/5h[4:1],{16}4-8[8:1],5,3,5,{4}4b,{8}1b,8h[8:1],
2,7h[8:1],3,6h[8:1],4,5h[8:1],3,4h[8:1],
2,3h[8:1],1,7h[8:1],8,6h[8:1],7,5h[8:1],
{32}A6,B6,,,{8}4h[8:1],5,3h[8:1],4,2h[8:1],{4}3<6[4:1],
6-1[4:1],1q5[4:1],5-8[4:1],8>3[4:1],
3,4,{8}6/5,7,{4}6/5,
{32}A8,B8,,,,,,,{8}1/2,3,4,{16}5,3,{4}6b/4b-2[8:1],
4/5-7[8:1],5/1-3[8:1],3/1-7[8:1],7/1-5[8:1],
{8}5,{16}6,6,{4}4-2[8:1],4/5-1[8:1],5/6<1[16:3],
{16}2,3,4,5,{32}6x,B6,C,B2,{8}A2,{32}8x,B8,C,B4,{8}A4,{4}3bxh[4:1]/5bxh[4:1],
{8},,6<8[8:1],{16}4,5,{4}4>2[8:1],1-5[8:1],
1,{12}1,2,3,7,6,5,3,4,5,
{4}8-5-7-4[8:3]*-3-1-4[8:3],,,5h[4:1],
3h[4:1],{8}4,{16}3,4,{4}2h[4:1],5h[4:1],
3h[4:1],6,7/5,6/5,
2/4,4/3,{8}5,4,{4}8h[4:1],
{2}7h[4:1],{4}1h[4:1],2h[4:1],
,6h[4:1],{2}5h[4:1],
{4}3h[4:1],4h[4:1],,6/3,
{16}5,4,5,4,{12}5,4,5,{4}4>1[4:1],{8}5,5,
6,6,{4}8/1,{16}1,8,1,8,{12}1,8,1,
{4}8p6[8:3],2,3,5b/3b-8[16:3],
3b/6b-2[16:3],{16}6b/1bw5[16:3],,,1,{4}1b,{8}7x,8x,
1x,{16}8x,1x,{8}8x,8x,2x,2x,6x,6x,
{16}4x-1[8:1],5x,4x,5x,{4}4xv7[8:1],Cf,8h[4:1],
{8}1h[4:1],8,7,{16}5,6,{8}5/7,5/7,{16},,6,6,
{4}4x,{8}3/5h[4:1],3,,3,{4}2/4,
{8}5/3,5/3,{16},,4,6,{8}5V31[2:1],6,{4}5,
{8}7,8,{4}8V64[2:1],{8}8,1,{16},,1,2,
{4}3-1[16:3],3,{8},5,{4}6-8[16:3],
{8}6,5,{16},,5,6,7h,8h,1h,2h,{4}3h[4:1],
{8}8h[4:1],2,{4}1h[4:1],{8}3h[4:1],4,5h[4:1],{16}8,1,
{4}2h[4:1],6b,7/3,{8}8/4>8[4:1],3/7,
{4}4/8<4[4:1],4-8[8:1],{16},,,,1,6,1,6,
2,7,2,7,3,8,3,8,2,1,2,1,{32}A1,E2,E3,A3,,,,,A1,
E1,E8,A7,,,,,{4}Cf,,,5/4,
{12}2,4,3,7,5,6,3/4-7[8:1],{24},,,,{8}4,
3,{4}2qq5[2:1],2/5,{8}6,6,
{4}7<4[4:1],4>1[4:1],1<6[4:1],6>8[2:1],
Cf,,,6/5-2[8:1],
{8}5,6,{4}7pp4[2:1],7/4,{8}3,3,
{4}2>5[4:1],5<8[4:1],8>3[4:1],3<1[2:1],
{8}1,1,{4}B8/B7,B6/B5,1p8[8:3],
{8}1/5,6,{4}7<5[8:1],7/3v8[4:1],8q4[4:1],
4q1[4:1],1q6[4:1],6qq3[2:1],3,
B5/E5f/B4,{8}5,5,{4}4bx,8-6[8:1],
{8}8,1,2,3,{4}4-6[8:1],{8}4,3,
{4}2>5[4:1],5<8[4:1],8-4[8:1],3-7[8:1],
3/5b-8[8:1],5b/1w5[8:1],1b,8/2h[4:1],
{8}6,6,4-7[8:1],4,{4}4/6-2[8:1],6/1-5[8:1],
1,6b/4b,{8}3/5,5,4/2,2,
{4}1/8,{8}1,{16}7,1,{8}7,2,{4}8b-4[8:1]/1b-5[8:1],
8/1,6-8v1-3[2:1]/3-1v8-6[2:1],{2}6b/3b,
{4},4b-8-6[4:1]*v6[4:1],,,5bs1[4:1]*s1[4:1],
{8},,,,7/3,6,
5/4,6,3/5,4/3,{4}2-8[8:1],{8}2/7-3[8:1],7,
7/4-6[8:1],4,{4}4,{8}5/7,6,4/2,3,
{16}4/6pp8[4:1],,,4,{8}6,3,3,{32}D3,A2,D2,A1,{4}8x/7xh[4:1],
{8}4,4,6,6,{4}3/5h[4:1],4h[4:1],
6h[4:1],{16}3,5,4,6,4,6,5,7,5,7,6,8,
{4}6p1[4:1],1p4[4:1],4>6[8:5],6h[4:1],
,5,4,3/6,
7/4,6q8[8:3],,2,
{2}2pp5[2:1],{4}8,8<5[4:1],
,1-4[16:3],7-3[16:3],2-5[16:3],
{1}1w5[8:5],
{8},,,,5,4,{4}6/2,
5/3,4,7/3,8/2,
1,1/5,6/2,7/3,
3/5,8/2,7/5,4/C,
{8},,3-7-1<8-2-6[4:5],5s1<8z4[8:9],{1},{4},,{16}5,
4,5,4,{8}6/3,3/6,{32}8b/1b,7/2,3/6,5/4,,,,,{4}8-4[8:1]/1-5[8:1],
,7b-5b[8:1],7b/8b-4b[8:1],8b/1b-3b[8:1],
1b,{8}8/7,8/7,2/1,2/1,{32}8,7,6,5,4,3,2,1,
{16}8/4,,,4,{8}3/7,3,{32}A8,B8,C,B4,{8}A4,3/5,7,
6/4,2,{4}8V24[4:1],4V68[4:1],8>4[4:1],
4<4[2:1],E8f,{8},E2f,{16},,,,5/E4f,
4,3,2,1,8,7/E6f,6,5,4,3,2,{4}1-5[8:1],
8-3[8:1],2-6[8:1],5-1[8:1],8-4[8:1],
2-6[8:1],7-4[8:1],3-8[8:1],1-6[8:1],
2-5[8:1],8-4[8:1],1w5[8:1],1b,
{8},,5/6,5/4,{12}3,4,3,4h[8:3],{24},,,,,,,{8}3,
4/3,4/3,4/3,4/3,4/3,3/4,
{16}3,4,3,4,{32}3,2,1,8,7,6,5,4,3,2,1,8,7,6,5,4,{4}3,
5/4,6/3,7/2,{8}4,{16}6,5,
{8}6,3,{4}5/4,{8}3/5,{16}3,4,{8}3,4,
{4}3/5,5,{32}B6,B5,,,,,,,{4}6/4,
6/3,6/2,7/2,{8}8,8,
1,1,{4}8V62[2:1],8,{8}2<7[8:3],3,
{4}3,4,{32}B4,B3,,,,,,,{4}5h[4:1],
3h[4:1],{8}6,6,{2}2q3[8:3],
{4}8,1h[4:1],6h[4:1],{8}2,2,
{2}5p4[8:3],{4}3,2h[4:1],
1h[4:1],8h[4:1],7h[4:1],6h[4:1],
{8}5,4,{4}6b-2[8:1]/3b-7[8:1],{8},,8/1,7/2,
{4}4b/5b,{8}1/5,8/4,{4}5/1,8b-4[8:1]/4b-8[8:1],
{8},,7/3,6/2,{4}5b/1b,{32}1,2,3,4,1,8,7,6,
{4}1bw5b[8:1],Cf,7b-3[8:1],7/1b-5[8:1],
1/8b-4[8:1],8/2b-6[8:1],2/7b-5[8:1],7/4b-8[8:1],
4/1b-3[8:1],1/4b-8[8:1],4/7b-5[8:1],7/2b-6[8:1],
{8}2,7,{4}8<5[4:1],{12},,,4,3,2,
{4}1/8,{12}6,1,7,3,8,2,5/1,{24},{8}5,
6/2,2,7/3,7,8/4,4,1/5,1,
6/2,6,7bv4[8:1]/1bv4[8:1],7b/1b,,,5/3,6,
5/3,2,7b-3[8:1]/1b-5[8:1],7b/1b,,,6-2[8:1],6,
7-3[8:1],7,8-4[8:1],8,1-5[8:1],1,2-6[8:1],2,
{4}3,4bw8[8:1],{12},,,6x/2x,6x/2x,6x/2x,
{2}5bx-1[8:1]/3bx-7[8:1],{12}8x,8x,8x,4,6,3,
5,2,7,1,8,2,{2}7bxh[#0.8181763],
{16},,,,(18.33)1xw5b[3.2733##0.0682],2x/8x,7x/3x,6x/4x,(220){2}1bx,
E
