&title=THE TRiANGLE
&artist=Yuta Imai
&first=0.86
&des=DZ
&des_5=
&lv_5=14+
&inote_5=(230)
{4}
,,,,
{4}
,,,
{4}
2h[2:1]/8,,7,
{4}
6h[2:1]/3,3,4,
{8}
3,3,5,5,4h[4:1],,
{4}
6>3[4:1],,
{8}
2,2,
{4}
1>3[4:1],4,5,
{4}
6<8[4:1],5,4,
{8}
3,8,2,7,1-6[4:1],,
{4}
6-4[6:1],4-1[4:1],,
{4}
7h[2:1],,1,
{4}
2h[4:1]/8,4,35,
{4}
4/6h[4:1],
{8}
3,3,5h[4:1],,
{4}
3<6[4:1],,
{8}
7,7,
{4}
8<6[4:1],5,4,
{4}
3>1[4:1],4,5,
{8}
6,6,2,2,4V61b[4:2],,
{4}
1-4[8:2]*-4[4:1],,,
{4}
7h[2:1]/5,5,5,
{4}
6h[2:1]/4,3,2,
{4}
2h[2:1]/5,4,4,
{4}
3h[2:1]/5,5,
{8}
6,6,
{4}
7h[2:1]/4,4,4,
{4}
6h[2:1]/4,4,3,
{4}
3h[2:1]/5,5,5,
{4}
4h[2:1]/5,5-8[8:1],,
{8}
7xh[2:1]/3,3,4,4,5pp1[4:2],,
{4}
3h[4:2],,,
{8}
2xh[2:1]/8,8,7,7,6>3[4:1],,
{4}
3>8[4:1],8<5[4:1],,
{8}
1,1,2/4,2,3/5,3,
{8}
4/6,46,3/7,37,2/8,28,
{4}
1b>4b[8:1],1b<6b[8:1],1bs5[8:4],
{4}
3h[4:2],,,
{4}
E4,B3,B2,
{4}
B6,B7,E8,
{4}
E3/E7,
{8}
E2,E8,E4,E6,
{4}
E5,C,E1,
{8}
2h[8:5],4,4,4,4,4,
{8}
3h[8:5],5,5,5,5,5,
{8}
46,,5,4,6,3,
{4}
5,4w8b[8:1]/5,,
{4}
2-4[8:1],8-6[8:1],1-5[8:1],
{4}
7pp4[8:3],
{8}
3,3,3,,
{4}
2-5[8:1],7-4[8:1],3-8[8:1],
{4}
6qq1[8:3],
{8}
2,2,2,,
{4}
3-5[8:1],3-1[8:1]/6,
{8}
7,7,
{4}
8-6[8:1],8-4[8:1]/1,
{8}
2,2,
{8}
3,3,5,5,4,4,
{4}
6z2b[32:9],,,
{4}
1h[8:1]/8h[8:1],2h[8:1]/4h[8:1],4h[8:1]/5h[8:1],
{4}
7h[8:1]/5h[8:1],
{8}
6-4[8:1],6,4,,
{4}
3h[4:1],
{8}
5-7[8:1],5,4-2[8:1],4,
{8}
8,8,71,71,62,,
{4}
4-6[8:1],3h[8:1],2h[8:1],
{4}
8-2[8:1],7h[8:1],6h[8:1],
{8}
4,4,5,5,3,6,
{16}
4,5,4,5,4,5,4,5,3>5[8:4],,,,
{4}
6h[4:2],,,
{4}
7V51[8:3],3h[4:1],,
{8}
2,2,8,8,4,4,
{4}
6-4[8:1],1-4[8:1]*-6[8:1]/6,1b,
{8}
3-5[8:1],,3/7-4[8:1],7,2,2,
{8}
3h[8:1],6h[8:1],
{16}
1-5[8:1],2,3,4,
{4}
1,
{16}
4,,6,5,
{8}
6,7,81,,
{4}
8-5[8:1],2/8-3[8:1],8/6,
{8}
7,7,6-3[8:1]/5,,36,,
{4}
2-4[8:1],5/2-6[8:1],2/7-3[8:1],
{4}
7b>6b[4:2]/3,,,
{4}
1,1w5[8:1],,
{8}
37,37,37,37,28,,
{4}
1-5[8:1],1/6<1[8:1],
{8}
6/4,4,
{4}
3-6[8:1],
{8}
7,8-5[8:1],8,,
{8}
4-2[8:1],,4-6[8:1]/6,,1-5[8:1],1,
{4}
8,
{16}
7,6,5,4,8-4[8:1],7,6,5,
{4}
84,
{16}
1,2,3,4,1,8,7,6,
{12}
2,2,5,3,3,6,
{4}
4h[4:1],
{4}
7-3[8:1],37,1w5b[8:1],
{4}
1b>8[4:10],,,
{4}
,,,
{4}
,,,
{4}
,,,
{8}
E3,,,C,,,
{8}
E7,,,,,,
{8}
E6,,,E5,,,
{8}
E4,,,,,,
{8}
3h[4:6],,,,4,,
{8}
,4,,,5,,
{8}
6h[4:6],,,,4,,
{8}
,4,,,5,,
{8}
5<8[4:3],,,4h[8:1],,,
{8}
3h[8:1],,,,2h[4:1],,
{4}
1>8[4:2],,,
{4}
1b,,,
{8}
7b,3,4,5,6,6,
{8}
2,6,5,4,3,3,
{8}
7,5,6,4,5-1[8:1],3,
{4}
5bpp3[4:2],,,
{8}
1,1,4,2,5,3,
{8}
7,7,4,6,3,5,
{8}
2,1,8,7,3-6[8:1],6,
{6}
3,E8/B7,E2/B2,
{16}
E6,,E4,,
{8}
7b,7,1,1,8,2,
{8}
7,7,
{16}
3,5,3,5,
{8}
3,6,
{8}
2b,2,5,5,4,6,
{8}
3,3,
{16}
7,1,7,1,
{8}
7,2,
{8}
8b,8,74,7,63,6,
{8}
2b,2,35,3,46,4,
{16}
7/3,6,5,4,3,2,1,8,
{4}
2/7-3[8:1],
{4}
1s5[8:4]/7b,,,
{4}
Ch[4:6],,,
{4}
,,,
{4}
2qq5<4[8:10],,,
{4}
,,,
{4}
5h[4:2],,,
{4}
4/6h[4:2],,,
{4}
3h[4:2],5,,
{4}
6q3[8:3]/4h[4:2],,,
{4}
2h[4:2],E5,E6,
{4}
3h[4:2],E7,E8,
{4}
E4,E3,E2,
{4}
E8,E7,E6,
{4}
4h[4:2],5,5h[4:1],
{4}
2h[4:1],4h[4:1],3h[4:1],
{4}
7h[4:1],
{8}
5,5,6h[4:1],,
{4}
1bs5[4:1],,,
{16}
6h[8:3],,,8,,,1,,
{8}
2,2>5[8:1],
{16}
1,,,8,,,7,,
{8}
64,6,
{16}
3h[8:3],,,1,,,8,,
{8}
7,7<4[8:1],
{8}
4,3,2,1,24,5,
{16}
6h[8:3],,,5,,,4,,
{8}
3,3>8[8:1],
{16}
4,,,5,,,6,,
{8}
71,7,
{16}
2h[8:3],,,8,,,7,,
{8}
6,6<1[8:1],
{8}
2,2,
{4}
2-6[8:1]*-5[8:1],2x,
{8}
4,4,36,3,25,2,
{8}
6,6,
{16}
1,7,1,7,
{8}
1,2,
{8}
8,8,73,7,64,6,
{8}
3,3,
{16}
5,4,5,4,
{8}
5,26,
{16}
1,7,1,7,2,6,2,6,3,5,3,5,
{16}
4,6,4,6,3,7,3,7,2,8,2,8,
{4}
1b>4b[8:1],1b<6b[8:1],1bw5[8:3],
{4}
,,,
{4}
2-4[8:1]/8,7>1[8:1]/2-6[8:1],2/7-4[8:1],
{4}
7/3-8[8:1],3/6-1[8:1],
{8}
46,4,
{8}
37,37,26,26,1-3[8:1]/5-7[8:1],,
{4}
1bs5[8:3]/5b,,,
{8}
6h[8:1],5,7h[8:1],4,8h[8:1],3,
{8}
7h[8:1],5,8h[8:1],4,1h[8:1],3,
{8}
8-4[8:1],8,2>5[8:1],2,
{16}
8,,8x,7x,
{4}
6xbh[4:12],,,
{8}
4xb,5x,4xb,5x,4xb,
{16}
4xb,5x,
{8}
4xb,5x,4xb,5x,3xb,5x,
{8}
4xb,5x,3xb,5x,4xb,5x,
{8}
4xb,,6x,
{16}
1x,2x,
{4}
3xbh[8:26],
{8}
7xb,4x,6xb,4x,5xb,
{16}
5xb,4x,
{8}
5xb,4x,5xb,4x,6xb,4x,
{8}
5xb,4x,6xb,4x,
{16}
5xb,,,4x,
{8}
5xb,4x,6xb,4x,7xb,4x,
{4}
8<2[8:9],2,2,
{4}
1,1,1,
{4}
1<4[8:8],2,2,
{4}
3,3,3,
{4}
2q4[4:2]/5h[4:2],,,
{4}
8<5[4:1],5p4[16:6],,
{4}
1w5[4:1],,,
{4}
3,6,45,
{4}
3x-5[8:1]/7,8-4[8:1]/3-1[8:1],8x<6[8:1]/3,
{4}
2x-6[8:1]/8,2/5-1[8:1],
{8}
4x/5,4,
{8}
3x,3,7x,7,1x-7[8:1]*-6[8:1],,
{4}
1x-4[8:1]*-3[8:1],1x,
{16}
6,5,6,5,
{4}
7x<5[8:1],7-1[8:1]/2-4[8:1],2-6[8:1]/7x,
{4}
2/8xV64[4:1],4x>8[4:1],1,
{8}
3x-6[8:1],3x,8x-5[8:1]*-3[8:1],8x,8xb,,
{12}
4xb,3,2,1/8-4[8:1],7,6,
{4}
5/8xb,
{8}
36,36,3-8[8:1]/6-1[8:1],,3b/6b,,
{8}
1x/7x,6,25,3,4h[4:1]/6,7,
{8}
8h[4:1],,
{16}
5,4,37,26,
{4}
1xb-4[8:1]/5xb-8[8:1],
{4}
1/5,3x-6b[8:1],7h[4:1],
{16}
8-4[6:1],,,1,,,1,,2,,2,,
{8}
3h[8:1],,
{16}
5,4,5,,
{8}
6<8[8:1]/3,,
{8}
3,2,1,8,7,6,
{4}
3V58b[16:5]/5V38[16:5],,,
{8}
1x,1<7[8:1],2,3,4,5,
{8}
6x,7-5[8:1],8,1,2,2,
{8}
3x,3>1[8:1],4,5,6,7,
{8}
8x,1-7[8:1],2,3,4,4,
{8}
5x,5>3[8:1],6,7,8,1,
{8}
2x,3-1[8:1],4,5,6,6,
{16}
7xh[8:1],,,1xh[8:1]/8xh[8:1],,,2x/7x,,2xz6[16:6]/7xs3[16:6],,,,
{4}
2x/7x,,,
{8}
45,45,45,45,3b/6b,,
{8}
2x-4[8:1],1,8,7,6,5,
{8}
6x-8[8:1],5,4,3,2,1,
{8}
8x-3[8:1],7,6,5,4,3,
{8}
5x>2[8:1],6,7,8,1,2,
{8}
4x<7[8:1],3,2,1,8,7,
{12}
2,2,5,3,3,6V41b[12:5],
{4}
4V61[12:4],
{4}
,,,
{32}
8/2xb,3x,4x,5x,
{8}
,
{32}
1w5b[8:1]/7xb,6x,5x,4x,
{8}
,
{4}
B1f,
{8}
37,37,28,28,
{24}
1b,2,3,7b,6,5,
{8}
1h[16:1],1h[16:1],8h[16:1]/2h[16:1],7h[16:1]/3h[16:1],6h[16:1]/4h[16:1],
{16}
3,4,
{16}
3,,6,5,6,,18,,27,,,,
{16}
2,1,2,1,2,,7b,8,7b,8,7b,,
{8}
61,61,38,38,
{24}
2xh,3,4,8xh,7,6,
{8}
1b,1b,
{24}
7xh,6,5,2xh,3,4,
{8}
8b-4[8:1],8b,
{4}
2xbs6b[4:1]`Cf,,,
{4}
4-8[4:1]/6xbh[2:1],,,
{12}
1h,5,5,8h,4,4,
{12}
2h,6,6,
{4}
5-1[4:1]/3xbh[2:1],,,
{24}
2x,3,4,8x,7,6,1x-5[8:1],2,3,7x,6,5,
{4}
1xb,
{12}
4,6,6,3,7,7,1bh[4:1],,,
{12}
4,2,2,5,3,3,7bh[4:1],,,
{12}
3h[48:1],5h[48:1],1h[48:1],6h[48:1],4h[48:1],8h[48:1],3h[48:1],5h[48:1],1h[48:1],
{4}
7bV52b[4:1]*-2-5[4:1],
