&title=プナイプナイげんそう ~プナイプナイinワンダーランド~
&artist=立秋我*你妈
&first=0
&des=clwmnq
&lv_5=8+
&lv_7=15
&inote_7=(135.5)
{8}
,,,,
{12}E3,E4,E5,6x,7x,8x,D2,D3,D4,5x/6x,4x/7x,3x/8x,2bh[4:1]/1b,,,8,8,8,8-5[8:1],,2,,3,,4h[4:1],,,5,5,5,5-1[8:1],,,,,,3h[4:1],,,2,2,2,2b^7-3b[12:4],,2,,3x-8-6^5b[12:4],,4hx[4:1],,,,4,4,4-1[8:1],,,,,,5h[4:1]/2-6[8:1],,,2,5,5,5b^8b[8:1],,,,,,4h[4:1]/7-3[8:1],,,7,4,4,4b^1b[8:1],,,,,,
2h[4:1]/7h[4:1],,,,27,27,2xb-5-1[32:7]`7x-4-8b[32:7],,,,,,Chf[2:1],,,,,,
(271)
{6}1,2,3,45,36,27,
{4}8x-6[8:1],2x-4[8:1],7x-5[8:1],
{8}1x-3[8:1],8,,7,75,4,46,5,35,,{4}1x-3[8:1],7x-5[8:1],2x-4[8:1],
{8}8x-6[8:1],1,,2,24,5,
{12}5x/3x,,4x/6x,,5x/7x,,
{4}8x^6[8:1],2x^4[8:1],7x^5[8:1],
{8}1x^3[8:1],8,,7,7h[8:1]/5,4,4h[8:1]/6,5,35,,2x^5[8:1],,1^6[8:1],,3x-8[8:1],,4x-7[8:1],4,,1,1,2,13,48,57,,6x-8[8:1],6x,2x-4[8:1],2x,5x-7[8:1],5x,1x-3[8:1],1x,4x-6[8:1],4x,8x-2[8:1],8x,
{16}
3x,4,5,6,3x,4,5,6,
{8}
7x-1[8:1],7x,3x-5[8:1],3x,8x-2[8:1],8x,4x-6[8:1],4x,1x-3[8:1],1x,5x-7[8:1],5x,1hx[16:1],2hx[16:1],
{16}8x,1,2,3,
{8}4h[4:1],
{16}E2,E1,E8,,7hx[4:1],,{24}E5,E4,E3,E2,E1,E8,E7,E6,E5,C,,,
{8}6h[8:1],{16}8,1,2,,4hx[4:1],,
{32}A7,D7,A6,D6,A5,D5,A4,D4,A3,D3,A2,,,,,,
{16}1b-5[8:1],,1,,8b-6[8:1],,8,,1b-3[8:1],,1,,8b-4[8:1],,8,,
{32}D3,A2,D2,A1,D1,A8,D8,A7,D7,A6,D6,A5,D5,A4,D4,A3,E2,E1,E8,E7,E6,E5,E4,E3,B2,B1,B8,B7,B6,B5,B4,B3,
{1}Cf,5^8[1:1],Ch[1:1],1<4[3:2],
{8}2hx[2:1]/3-5[3:1],,,,,,,1x-5[2:1],,1/8hx[8:3],,,,,,,7hx[2:1]/6-4[3:1],,,,,,,8x-4[2:1],,8/1hx[8:3],,,,,,,2b-5[8:1]/3b-5[8:1],,2qq3[1:1]`3-7b[16:3],,,,,6,5h[2:1],,,,,,24,,6b-1[8:1]/7b-1[8:1],,6qq7[1:1]`7-3b[16:3],,,,,2,1h[2:1],,,,,,68,,1,1,7,7,2,2,8,8,
{24}1hx[24:1]/D7,,,A6,,,8hx[24:1]/D3,,,A3,,,
{32}2hx[384:1],B2,,,,,,,8hx[384:1],B8,,,,,,,
{24}E3,B3,B4,E5,,,E7,B7,B8,E1,,,
{16}2,4,2,4,1,4,1,4,
{24}1x,8x,7x,6x,5x,4x,3x,2x,1x,
{32}8x,7x,6x,5x,4xb,3x,2x,1x,
{48}8x,7x,6x,5x,4x,3x,2x,1x,8x,7x,6x,5bx-1b[8:1],,,,,,,
{8}5b,,,,2,,4^7[8:1],4x,1-5[8:1],,1,,8,6,7,5,6hx[4:1],4,,5h[4:1],3,,4-6[8:1]/2-4[8:1],1,,,Ch[6:1],,
{6}E8/E2,
{12}1xb-5[8:1],,,,
{8}Cf,,7,,5^2[8:1],5,8-4[8:1],8x,1h[4:1],,,,4h[8:1],2,5h[8:1],3,6h[16:3],,4h[16:3],,5h[16:3],,1-5[8:1],,
{12}1,,6,7b,,,8hxb[4:1],,4,3b,,,
(203.2)
{8}Chf[1:1],,E2,,E5/B4/B5,,E7/E8/A7,,A1/D1/D2/E1/E2/B1,,2x-4-6[4:1],,6V82[4:1],,E2,,Ch[4:1],,4x,4,3x,3,1x/2x,21,1x/7x,71,2x/8x,28,1x-5[8:1],6,1x,8,
{16}47,6,5,,8,,17,,
(271)Ch[4:1],,
{32}B5,E5,,,B3,E3,,,E1,B8,,,E7,E6,B5,,,E4,E3,B2,,,E1,E8,B7,,,,
{48}B5,E5,A4,E4,,,,,B2,E2,A1,E1,,,,,B7,E7,A6,E6,E5,,,,,,,B4,E4,A3,E3,E2,,,,,
{16}Chf[8:1],,,,
{8}3x^5[8:1],,2x-6[8:1],,1x-5[8:1],,8x^6[8:1],,4x,4,3x,3,2h[4:1],4,5,6,7x^5[8:1],7x,8x-4[8:1],8x,1x-5[8:1],1x,2x^4[8:1],2x,7,7,8,8,51,51,
{24}48,37,26,15,,,
{8}8x,8x-4[8:1],4x^1[8:1],4x,
{24}8x,7,6,5,8x,7,6,5,4,3,2,1,8bx/3x,,,8,,,2x/5x,,,5,,,1,2,3,4,5,6,7,8,1,2,3,4,5/8-4[8:1],,,4-8[8:1],,,8-3[8:1],,,3-8[8:1],,,8-5[8:1],,,5-8[8:1],,,,,,,,,2b,3,4,1,2,3,4b,7,6,5,8,7,6,5,1,2,3,4,5b,,,,,,8-2[8:1],,,7-5[8:1],,,8-4[8:1],,,7-3[8:1],,,8-2[8:1],,,7-5[8:1],,,8,,,7,,,3x,,,3,,,2,,,2,,,1h[24:1],,,1h[24:1],,,2h[24:1]/8h[24:1],,,3h[24:1]/7h[24:1],,,6b,5,4,7b,6,5,2b,3,4,1b,2,3,D2,A2,D3,A3,E4,B4,E5,D5,A5,D6,A6,D7,A7/4hxb[384:1],D8,E8,B8,E1,A1,D1,A8,D8,A7,D7,A6,E6/1hbx[384:1],A5,D5,A4,D4,E4,B3,E3,D3,A2,D2,A1,D1/5-8[8:1],,,5,,,4-1[8:1],,,4,,,6-1[8:1],,,6,,,3-8[8:1],,,3,,,C,B7,E7,B6,B5,E5,B4,B3,E3,B2,,,8-4[8:1],,,8,,,3-7[8:1],,,3,,,5h,,,5h,,,5h,,,5bh,,,5bh/8^3[8:1],,,6h,,,7h,,,8x-4[8:1],,,A4,D4,A3,D3,A2,D2,A1,A4,D5,A5,D6,A6,D7/Cf,,,,,,,,,,,,2^4[8:1],,,2,,,7^5[8:1],,,7,,,1-5[8:1],,,1,,,8-4[8:1],,,8,,,3,,,2,,,1,,,8,,,1b/7b,,,2b/6b,,,3b/5b,,6,7,8,,
{16}1,1,2,1,1,8,2h[4:1],,
{32}8,7,6,5,4h[4:1],,,,1,8,7,6,5,,,,
{6}4b/2b,5b/7b,1b/8b,5b/7b,4b/2b,8b/1b,
{8}2v5[8:1],1^6[8:1],2,1,
{24}A4,D4,A3,E3,B3,B4,E5,B5,E6,D6,A6,D7,A7/1,2,3,4,5,2,3,4,5,61,8,7,6,5,8,7,6,5,4/8b-4b[8:1],,,,,,Cf/A3,D3,A2,D2,E2,B2,B3,E4,A4,B4,E5,
B5,A5,E6,B6,B7,E8,D8,A7,D7,A6,D6f/1h[8:1],,,4,3,2,1,3,2,1,8,5,6,7,8,1,,,,1-5[12:1],,,,1b,,,,
{16}8,,8,,1,1,2,8,1,1,2,8,3,8,7,6,25,,3,4,2,4,3,,
{32}2h[8:1],7bx,6,5,,1bx,8,7,6,3bx,2,18,7,6bx,,,
{6}5h[16:1]/3,5/3h[16:1],5b/3,4/7h[16:1],4h[16:1]/7,4/7b,2b,7b,1b,A2f/E3/E2,A7f/E7/E8,A1f/E1/E2,
{8}3-5[8:1],3,2-6[8:1],2,4,4,35,35,
{32}2b,3,4,,
{24}1,2,3,4b,E5,E4,E3,E2,,
{32}7b,6,5,,
{24}8,7,6,5b,E5,E6,E7,E8,,
{8}1x-5[8:1],1,6-1[8:1],6,3-7[8:1],3,5,5,
{32}A8f/4x,D1,A1,D2,E2,B2,E3,A2,D3f/4x,A3,D4,A4,D5,A5,D6,A6,D7f/8x,E7,B7,E8,D8,A8,D1,A1,D2f/8x,,,,,,,,
{8}6-4[8:1],6,7-3[8:1],7,5,5,64,64,
{32}7b,6,5,,
{24}8,7,6,5b,E1,E8,E7,E6,E5,
{32}2b,3,4,,
{24}1,2,3,4b,E1,E2,E3,E4,E5,
{8}8x-4[8:1],8,3-8[8:1],3,6-2[8:1],6,4,4,
{32}A1f/5x,D1,A8,D8,E8,B7,E7,A7,D7f/5x,A6,D6,A5,D5,A4,D4,A3,D3f/1x,E3,B2,E2,D2,A1,D1,A8,D8f/1x,,,,,,,,
{8}3-5[8:1],6-4[8:1],3,6,2-5[8:1],7-4[8:1],2,7,1x,1,3x,3,
{24}4b,5,6,7,8,1,2,3,4,5,,,
{8}7,7,1,1,28,28,37,73,
{24}4x,5x,6x,
{32}7x,8x,1x,2x,
{24}3x/7x,6x,5x,
{32}4x/8x,1x,2x,3x,4x/1x,2x,3x,4x,
{24}5x/1x,8x,7x,6x,7x,6x,5bx,,,
{8}3v6[8:1],5,3,8,7v4[8:1],4,3,2h[4:1],
{32},,,,1,8,7,6,5,,,,8,7,6,5,4b,,,,1,,,,82,,,,37,,,,
{16}6,4,6,4,6,4,6,4,5,5,5,5,5,5,5,5,
{24}5b,A6,A7,A8,A1,A2,A3,A4,A5,
{16}E7,E8,E1,E2,E3,E4,E5,E6,E7,,Ch[1:1],,,,,,,,,,,,,,,,1w5b[135#16:1],,,,,,,,Cf,,,,,,,,7-5[8:1]*-5[8:1],,7,,8-4[8:1]*-4[8:1],,8,,1-5[8:1]*-5[8:1],,1,,2-4[8:1]*-4[8:1],,2,,2,,
{24},8,7,6,,,1hb[4:1],,,7,6,5,4,,,12,,,38,,,
{8}7-5b[8:1],7,8-5b[8:1],8,1-5b[8:1],1,2-5b[8:1],2,3-5b[8:1],3,
{24}1,8,7,6,,,8,,,17,,,26,,,35,,,
{8}
{16}4x,B4,5x,B5,3x,B3,6x,B6,2x,B2,7x,B7,1x,B1,8x,B8,2,1,2,1,2,3,2,3,
{32}1bx,8,7,6,5-1[16:1]/1x,2,3,4,5b,,,,,,,,
{24}7x,8,7,8,6x,1,6,1,5,2,5,2,4,3,4,3,6,7,8b,,,4,3,2b,B5f,,,5,6,7b,E2f,,,1,2,3b,5x/7x,,,,1x/8x,,,,2x/4x,,,,7-5[8:1],,,4-8[8:1],,,7,,,4,,,6,,,6,,,
{16}57,48,13,,2hb[4:1],,
{24}8,7,6,5,,,18,,,
{32}A7,D7,A6,D6,A5,D5,A4,D4,
{48}E1,E8,E7,E6,E5,E4,Cf,,,,,,
{8}2b^4[8:1],E3,1bq5[8:1],E1,8bp4[8:1],E1,7b^5[8:1],E7,3,3,1,1,7,7h[4:1]/D1,
{32}A8,D8,D7,A6,D6,A5,D5,A4,
{8}1-5[8:1],2-4[8:1],1,2,
{32}D6,A6,D7,E7,B7,B8,E1,B1,B2,E3,D3,A3,D4,,,,
{16}57,8,1,2,36,5,4,3,
{32}25,6,7,8,1,2,3,4,51,8,7,6,5,4,3,2,
{1}1b-5[1:2]/Cf,,,
(135.5){12},,,,,,3^5[8:1],,,,,,24,,,,,,6^4[8:1],,,,,,75,,,,,,1h[8:12],,E4,,,,E6,,,,,,E1,,,,,,8-4[4:1],,,,,,2h[4:1],,,4,4,4,4^6[8:1],,,,,,8h[4:1],,,4,4,4,4-1[8:1],,,,,,Ch[2:1],,,,,,,E1,E3,E5,E7,
{2}1bx-4[100#16:1]/8bx-5[100#16:1],
E
