&title=S・M・L☆
&artist=アフィリア・サーガ
&first=0
&des=♥FDSM
&lv_6=13+
&lv_7=13+
&inote_6=(200)
{1}
,
{16}
4h[2:1],,,,,,,,,,,,,,,,5h[2:1]/4h[2:1],,,,,,,,,,,,,,,,
{12}
1b,,,2,,,3,,,4,,,1,,1,7h[8:1],,,1,,1,8h[8:1],,,
6bxh[1:1]/1b,,,2,,,3,,,4,,,1,,1,7h[8:1],,,1,,1,8h[8:1],,,
1b,,,2/7,,,3/6,,,4pp4qq4b[4:3]/5,,,7h[4:1],,,,,8xh[3:1],,,,,,,
2^8-4^6[3:1],,,,,6-8v1-3[3:1],,,,,,,5b,,,B5/B6,,,B7/B8/E8,,,1b,,,
{16}
4/5,,3,,4/5,,6,,4/5,,2,,4/5,,7,,3-7[8:1],,,,6pp2[4:1],,6,,,,3,,3,,,,
1/8,,2,,1/8,,7,,1/8,,3,,1/8,,6,,2-6[8:1],,,,7qq3[4:1],,7,,,,2,,2,,,,
3/5,,2,,4/6,,7,,2/5,,1,,4/7,,8,,3-7[8:1],,,,6pp1[4:1],,6,,,,3,,3,,,,
2/8,,3,,1/7,,6,,3/8,,4,,1/6,,5,,2-6[8:1],,,,7qq4[4:1],,7,,,,2,,2,,,,
{4}
3h[8:7]/B5,B6,B8,B7,4hx[8:7]/B4,B3,B1,B2,Ch[8:7]/E4,E2,E8,E63,
{16}
5x,6x,7x,8x,1x,2x,3x,4x,5,6,7,8,1b,,,,
3/4,,5,,6,,7,,8-4[8:1],,,,A8,,5,,4,,3,,2,,1,,7-3[8:1]/8-4[8:1],,,,7/8,,,,
6/5,,4,,3,,2,,1-5[8:1],,,,A1,,8b,,7,,7/2,,7/2,,7/2,,,,1b,,1b,,,,
1-5[8:1],,8,,7-3[8:1],,,,2h[4:1],,,,,,
2-6[8:1],,1,,8-4[8:1],,1,,8x,,2h[4:1],,,,,,,,
4-8[8:1],,6v1[8:1],,4,,6,,,,2-5[8:1],,1,,2,,,,
4/8,,3/7,,2/6,,1/5,,,,8b,,,,
1-3[8:1],,1,,8-6[8:1],,8,,1-5[8:1],,1,,8-4[8:1],,8,,
2-6[8:1],,2,,1,,8,,7-3[8:1],,7,,6,,5,,
4^1[8:1],,4,,5,,6x,,6^1[8:1],,6,,5x,,4,,3-1[8:1],,2,,8^6[8:1],,7x,,
4-2[8:1],,3,,5x,,6,,1-5[8:1],,1,,8,,7x,,
6v3[8:1],,6,,7xh[8:1],,,,8-4[8:1],,8,,1,,2x,,
3v8[8:1],,2,,1xh[8:1],,,,
2b-6[8:1],,2,4,2,,7x-3[8:1],,7,5,7,,4xh[4:1],,,,5b,,6b,,7b,,8b,,,,1b/5b,,3b/7b,,,,
4^1[8:1],,4,,5,,6,,7^2[8:1],,7,,6,,5,,4^7[8:1],,3,,2,,1,,8^3[8:1],,7,,6,,5,,
5,,4x-8[8:1],,4,,7,,6v3[8:1],,6,,3/6x,,,,4x,,4x-8[8:1],,5,,6,,7-3[8:1],,7,,2/7x,,,,
4b-8[16:1],,5,,A4/6xq2[8:1],,7,,6x,,4,,3,,,,5b-1[16:1]/4b,,4,,A5/3xp7[8:1],,2,,3x,,5,,6,,,,
5bh[8:1],,3,,7x/Cf,,B7,,4bh[8:1],,6,,2x/Cf,,B2,,8b-5[8:1]*-6[8:1],,,,8b-2[8:1]*-3[8:1],,,,8b,,,,8b,,,,
4x/5x^8[8:1],,,,3,,2,,4x/3x^8[8:1],,,,7-5[8:1],,,,3x-1[8:1]/7,,,,8-4[8:1]/3,,,,8/5-2[8:1],,,,6,,,,
5x/4x^1[8:1],,,,6,,7,,5/6x^1[8:1],,,,3-6b[16:1],,,,7x-2b[16:1]/3,,,,4-1b[16:1]/7,,,,4/8-5[16:1],,,,8/7,,,,
4bz8[16:1],,4bx,,,,,,3b-1-6[8:1]/6b-8-3[8:1],,3bx/6bx,,,,,,4bx-2[16:1]/5bx-7[16:1],,4bx/5bx,,,,,,4bx-1[16:1]/5bx-8[16:1],,4bx/5bx,,,,,,
{16}
3b,5,4,5,3b,5,4,5,2b,5,4,5,2b,5,4,5,
{48}
1b,D2,A2,D3,A3,,,,5xb,D6,A6,D7,A7,,,,3xb,E4,B4,B5,E6,,,,
7xb,E8,B8,B1,E2,,,,,,,,
{16}
1bx,,,,4bqq4[2:1],,,,5,,5,,4bxpp4[2:1],,5,,6,,,,4bx-1[4:1],,,,1b-5[4:1],,1,8,7b-4[8:1],,7x,,7xpp2b[2:1],,,,A7f,,,,5,,,,4,,4,,4p1b[2:1],,,,4b,,,,1xp6[2:1],,1x,,,,6x,,6x>7b[1:1],,,,Cf,,,,,,B4,,B5,,,,7<2[4:3],,6,,,,,,,,,,8,,,,1qq6[2:1],,,,1b,,,,2,3,4,,4x,,4x,,3h[8:1],,,,
{32}
8b,7,6,5,,,,,1b,2,3,4,,,,,7b,6,5,4,,,,,2b,3,4,5,,,,,
{16}
7bqq8[2:1],,,,3,,2,,1bxpp8[2:1],,2,,1,,,,8b-5[4:1],,,,5b-1[4:1],,6xh[16:1],,7b-4[8:1],,8,,7bxpp2b[2:1],,,,A7f,,,,5,,,,4,,4,,4q7b[2:1],,,,4b,,,,7xq2[2:1],,7x,,,,2x,,2x<3b[1:1],,,,Cf,,,,,,B5,,B4,,,,3>6[4:3],,2,,,,,,5,,,,4,,,,3qq8[2:1],,,,3b,,,,5,6,7,,7x,,7x,,6,,6,,3b,5,4,5,3b,5,4,5,2b,5,4,5,2b,,6,,
1b-3[8:1]/8b,,,,7,,6,,1b-4[8:1]/8b,,,,7,,6,,1b-5[8:1]/8b,,7,,6,,7,,8,,,,
3-7[8:1],,,,3/6,,,,5-1[8:1]*-1[8:1],,5,,5/3,,,,2-6b[8:1],,2,,1/2,,,,8bx,,,,
2^5[4:1],,,,5^8[4:1],,,,8^3[4:1],,,,3^6[4:1],,,,6^1[4:1],,,,1>5[4:1],,,,5<1[4:1],,,,1>4[4:1],,,,5,,,,C,,,,
{32}
5^2[8:1],6x,7x,8x,,,,,,,,,,,,,6,7x,8x,1x^4[8:1],,,,,C,,,1b,8x,7x,6x,5xh[32:25],,,,,,,,,4,,,,,,,,4,,,,,,,,4,,,,,,,,
{32}
3qq5[2:1],,,,,,,,,,,,,,,,4,,,,,,,,,,,,,,,,6pp4[2:1],,,,,,,,,,,,,,,,5,,,,,,,,,,,,,,,,
2^5[4:1],,,,,,,,2,,,,,,,,7^4[4:1],,,,,,,,7,,,,,,,,1pp4[2:1],,,,,,,,8,,,,,,,,7,,,,,,,,6,,,,,,,,
{16}
3/6xh[4:1],,3,,3,,3,,2/7xh[4:1],,2,,2,,2,,1/8xbh[4:1],,1,,1,,1,,1bh[4:1]/8bh[4:1],,,,,,,,
1,,1,8,1,,1,,8,,8,1,8,,8,,2,,2,1,2,,3,,7,,7,8,7,,6,,
2x/5x,,3,4,3,,3,,7x/4x,,6,5,6,,6,,3bx/8bx,,2,1,2,,2,,6bx/1bx,,7,8,7^4[8:1],,,,
{32}
3b,2x,1x,8x,,,,,8x^5[8:1]/C,,,,,,,,4b,3x,2x,1x,,,,,8x^5[8:1]/C,,,,,,,,1b,2x,3x,4x,,,,,C,,,,,,,,1/8,2x/7x,3bxh[16:3]/6bxh[16:3],,,,,,,,,,,,,,
{16}
4-2[8:1]/5,,3,,4/5-7[8:1],,6,,4-8[8:1]/5,,3,,4/5-3[8:1],,6-2[8:1],,5-1[8:1],,6-8[8:1],,5,,6xz2[6:1],,,,2x,,2x,,,,
1-3[8:1]/8,,2,,1/8-6[8:1],,7,,1-5[8:1]/8,,2,,1/8-2[8:1],,7-3[8:1],,8-4[8:1],,7-5[8:1],,8,,7xs3[6:1],,,,3x,,3x,,,,
{32}
1b,2x,3x,4x,,,,,8bx/1,7x,6x,5x,,,,,1b-5[8:1],2x,3x,4x,,,,,8bx/1^4[8:1],,,,8x^5[8:1],,,,1-5[8:1],,,,8-4[8:1],,,,1,,,,8x-6-2[6:1],,,,,,,,1x,,,,1x,,,,,,,,
1b-5[8:1]/8,2x,3x,4x,,,,,8bx/A1f,7x,6x,5x,,,,,1b-5[8:1]/8x^5[8:1],2x,3x,4x,,,,,A8f/1x,,,,,,,,
{16}
4x,3x,2x,1x,8x,7x,6x,5x,4x,3x,2x,1x,8b,,,,
8b/5,B5,8,,8/3,B3,8,,8/6x,B6,8,,8/1x,B8,C,,2b,,2x/B4,,2x/B5,,1b/Ch[4:1],,1,,1,,2b/7x-2[8:1],,2,,3b/7b-4[8:1],,3,,3/7b^2[8:1],,3,,3/7b^4[8:1],,3,,3/7b-2[8:1],,3x-8[8:1],,7-4[8:1],,3-6[8:1],,7,,3x-5-8[6:1],,,,1x,,1x,,,,
{32}
1b^6[8:1],2x,3x,4x,5x,,,,1x,,,,C,,,,1b^6[8:1],2x,3x,4x,5x,,,,1x,,,,C,,,,2x/E5,,,,6x/E4,,,,1x/B7,,,,8xz4[8:1]/C,,,,,,,,1x,,,,1x,,,,,,,,
1b^6b[8:1],2bx,3bx,4bx,5x,,,,1bx,E1f,E8f,E7f,C,,,,1b^6b[8:1],2bx,3bx,4bx,5x,,,,1bx,E1f,E8f,E7f,C,,,,2x/E5,,,,6x/E4,,,,1x/B7,,,,8x/C,,7x,,6x,,5x,,4x,,3x,,2x,,1x,,8xh[8:1],,,,,,,,,,,,,,,,,,,,
{4}
2b^7-3^6pp5b[1:5]/6b-8-5-2-4qq5[1:5],2b/6b,
&inote_7=(200)
{1}
,
{16}
4h[2:1],,,,,,,,,,,,,,,,5h[2:1]/4h[2:1],,,,,,,,,,,,,,,,
{12}
1b,,,2,,,3,,,4,,,1,,1,7h[8:1],,,1,,1,8h[8:1],,,
5bxh[1:1]/1b,,,2,,,3,,,4,,,1,,1,7h[8:1],,,1,,1,8h[8:1],,,
1b,,,2/7,,,3/6,,,4pp4qq4b[4:3]/5,,,7h[4:1],,,,,8xh[3:1],,,,,,,
2^8-4^6[3:1],,,,,6-8v1-3[3:1],,,,,,,5b,,,B5/B6,,,B7/B8/E8,,,1b,,,
{16}
4/5,,3,,4/5,,6,,4/5,,2,,4/5,,7,,3-7[8:1],,C,,6pp2[4:1],,6,,,,3,,3,,,,
1/8,,2,,1/8,,7,,1/8,,3,,1/8,,6,,2-6[8:1],,C,,7qq3[4:1],,7,,,,2,,2,,,,
3/5,,2,,4/6,,7,,2/5,,1,,4/7,,8,,3-7[8:1],,C,,6pp1[4:1],,6,,,,3,,3,,,,
2/8,,3,,1/7,,6,,3/8,,4,,1/6,,5,,2-6[8:1],,C,,7qq4[4:1],,7,,,,2,,2,,,,
{4}
3h[8:7]/B5,B6,B8,B7,4hx[8:7]/B4,B3,B1,B2,Ch[8:7]/E4,E2,E8,E63,
{16}
5x,6x,7x,8x,1x,2x,3x,4x,5,6,7,8,1b,,,,
3/4,,5,,6,,7,,8-4[8:1],,,,A8,,5,,4,,3,,2,,1,,7-3[8:1]/8-4[8:1],,,,7/8,,,,
6/5,,4,,3,,2,,1-5[8:1],,,,A1,,8b,,7,,7/2,,7/2,,7/2,,,,1b,,1b,,,,
1-5[8:1],,8,,7-3[8:1],,,,2h[4:1],,,,,,
2-6[8:1],,1,,8-4[8:1],,1,,8x,,2h[4:1],,,,,,,,
4-8[8:1],,6v1[8:1],,4,,6,,,,2-5[8:1],,1,,2,,,,
4/8,,3/7,,2/6,,1/5,,,,8b,,,,
1-3[8:1],,1,,8-6[8:1],,8,,1-5[8:1],,1,,8-4[8:1],,8,,
2-6[8:1],,2,,1,,8,,7-3[8:1],,7,,6,,5,,
4^1[8:1],,4,,5,,6,,6^1[8:1],,6,,5,,4,,3-1[8:1],,2,,8^6[8:1],,7,,
4-2[8:1],,3,,5,,6,,1-5[8:1],,1,,8,,7,,
6v3[8:1],,6,,7h[8:1],,,,8-4[8:1],,8,,1,,2,,
3v8[8:1],,2,,1h[8:1],,,,
2b-6[8:1],,2,4,2,,7-3[8:1],,7,5,7,,4xh[4:1],,,,5b,,6b,,7b,,8b,,,,1b/5b,,3b/7b,,,,
4^1[8:1],,4,,5,,6,,7^2[8:1],,7,,6,,5,,4^7[8:1],,3,,2,,1,,8^3[8:1],,7,,6,,5,,
4,,4x-8[8:1],,E6,,7,,6x-1[8:1],,6,,3/6x,,B4,,5x,,5x-1[8:1],,E4,,2,,3v6[8:1],,3,,6/3x,,,,
4b-8[16:1]/5b,,5,,A4/6xq2[8:1],,7,,6x,,4,,3,,,,5b-1[16:1]/4b,,4,,A5/3xp7[8:1],,2,,3x,,5,,6,,,,
5bh[8:1],,3,,7x/Cf,,B7,,4bh[8:1],,6,,2x/Cf,,B2,,8b-5[16:1]*-6[16:1],,,,8b-2[16:1]*-3[16:1],,,,8bw4[16:1],,,,8b,,,,
4x/5x^8[8:1],,,,3,,2,,5/6x^1[8:1],,,,3-5[16:1],,2,,7x-3[16:1]/3,,,,2-6[16:1]/7,,,,2/5-2[16:1],,,,3/5,,,,
5x/4x^1[8:1],,,,6,,7,,4/3x^8[8:1],,,,6-3[16:1],,7,,2-7[16:1]/6,,,,8-3[16:1]/2,,,,8-5[16:1]/1-6[16:1],,,,1/8,,,,
4bz8[16:1],,4b,,,,,,3b-1-6[8:1]/6b-8-3[8:1],,3b/6b,,,,,,4bx-1[16:1]/5bx-8[16:1],,4bx/5bx,,,,,,1b/8b,,
{32}1b/8b,2x/7x,3x/6x,4x/5x,,,,,,,,,
{16}
3b,5,4,5,3b,5,4,5,2b,5,4,5,2b,5,4,5,
{48}
1b,D2,A2,D3,A3,,,,5b,D6,A6,D7,A7,,,,3b,E4,B4,B5,E6,,,,
1bw5[16:1],E1,B8,B7,E7,,,,,,,,
{16}
1bx,,,,4bxqq4[2:1],,,,5,,5,,4bxpp4[2:1],,5,,6,,,,4x-1[4:1],,,,1-5[4:1],,1,8,7-4[8:1],,7x,,7xpp2[2:1],,,,,,,,5,,,,4,,4,,4-7b[8:1]*p1[2:1],,,,4b,,,,1xp6[2:1],,1x,,,,6x,,6x>7b[1:1],,,,,,,,,,B4,,B5,,,,7<2[1:1],,6,,,,,,,,,,8,,,,1p4[4:1],,,,1b,,,,1x,2,3h[2:1],,6,,6,,7h[8:1],,,,
{32}
8b,7,6,5,,,,,1b,2,3,4,,,,,7b,6,5,4,,,,,2b,3,4,5,,,,,
{16}
7bqq8[2:1],,,,3,,2,,1bxpp8[2:1],,2,,1,,,,8-5[4:1],,,,5-1[4:1],,6xh[16:1],,7-4[8:1],,8,,7pp2[2:1],,,,,,,,5,,,,4,,4,,4-1b[16:1]*q7[2:1],,,,4b,,,,7xq2[2:1],,7x,,,,2x,,2x<3b[1:1],,,,,,,,,,B4,,B5,,,,7<2[1:1],,7,,,,,,7,,,,8,,,,1p4[4:1],,,,1b,,,,1x,2,3h[2:1],,6,,6,,7,,7,,3b,5,4,5,3b,5,4,5,2b,5,4,5,2b,,6,,
1b-3[8:1]/8b,,,,7,,6,,1b-4[8:1]/8b,,,,7,,6,,1b-5[8:1]/8b,,7,,6,,7,,8,,,,
3-7[8:1],,,,3/6,,,,5-1[8:1]*-1[8:1],,5,,5/3,,,,2-6b[8:1],,2,,1/2,,,,8bx,,,,
2^5[4:1],,,,5^8[4:1],,,,8^3[4:1],,,,3^6[4:1],,,,6^1[4:1],,,,1>5[4:1],,,,5<1[4:1],,,,1>4[4:1],,,,5,,,,C,,,,
{32}
5x^2[8:1],6x,7x,8x,,,,,,,,,,,,,,6x,7x,8x,1x^4[32:1],,,,C,,,,1,8x,7x,6x,5bxh[32:25],,,,,,,,4,,,,,,,,4,,,,,,,,4,,,,,,,,
{32}
3qq5[2:1],,,,,,,,,,,,,,,,4,,,,,,,,,,,,,,,,6pp4[2:1],,,,,,,,,,,,,,,,5,,,,,,,,,,,,,,,,
2^5[4:1],,,,,,,,2,,,,,,,,7^4[4:1],,,,,,,,7,,,,,,,,1pp4[2:1],,,,,,,,8,,,,,,,,7,,,,,,,,6,,,,,,,,
{16}
3/6h[4:1],,3,,3,,3,,2/7h[4:1],,2,,2,,2,,1/8bh[4:1],,1,,1,,1,,1bh[4:1]/8bh[4:1],,,,,,,,
1,,1,8,1,,1,,8,,8,1,8,,8,,2,,2,1,2,,3,,7,,7,8,7,,6,,
2/5,,3,4,3,,3,,7/4,,6,5,6,,6,,3/8,,2,1h[8:1],2,,2,,6/1,,7,8h[8:1],7^4[8:1],,,,
{32}
3b,2x,1x,8x,,,,,8x^5[8:1]/C,,,,,,,,4b,3x,2x,1x,,,,,8x^5[8:1]/C,,,,,,,,1,2,3,4,,,,,C,,,,,,,,1x/8x,2/7,3bh[16:3]/6bh[16:3],,,,,,,,,,,,,,
{16}
4-2[8:1]/5,,3,,4/5-7[8:1],,6,,4-8[8:1]/5,,3,,4/5-3[16:1],,6-2[16:1],,5-1[16:1],,6-8[16:1],,5,,6z2[8:1],,,,2x,,2x,,,,
1-3[8:1]/8,,2,,1/8-6[8:1],,7,,1-5[8:1]/8,,2,,1/8-2[16:1],,7-3[16:1],,8-4[16:1],,7-5[16:1],,8,,7s3[8:1],,,,3x,,3x,,,,
{32}
1b,2x,3x,4x,C,,,,8bx,7x,6x,5x,C,,,,1b-5[8:1],2x,3x,4x,C,,,,8bx/1x^4[16:1],,,,8x^5[16:1],,,,1-5[16:1],,,,8-4[16:1],,,,1,,,,8-6-2[6:1],,,,,,,,1x,,,,1x,,,,,,,,
1b-5[8:1],2x,3x,4x,C,,,,8b,7x,6x,5x,,,,,1b-5[8:1]/8x^5[8:1],2x,3x,4x,,,,,A8f/1x,,,,,,,,
{16}
4,3,2,1,8,7,6,5,4,3,2,1,8b,,,,
8b/5,B5,8,,8/3,B3,8,,8/6x,B6,8,,8/1x,B8,C,,2b,,2x/B4,,2x/B5,,1b/Ch[4:1],,1,,1,,2b/7x-2[8:1],,2,,3b/7b-4[8:1],,3,,3/7b^2[8:1],,3,,3/7b^4[8:1],,3,,3/7b-2[8:1],,3x-8[8:1],,7-4[8:1],,3-6[8:1],,7,,3-5-8[6:1],,,,1x,,1x,,,,
{32}
1b^6[8:1],2,3,4,5x,,,,1x,,,,C,,,,1b^6[8:1],2,3,4,5x,,,,1x,,,,C,,,,2x/E5,,,,6x/E4,,,,1x/B7,,,,8xz4[8:1]/C,,,,,,,,1x,,,,1x,,,,,,,,
1b^6b[8:1],2,3,4,5x,,,,1x,E1,E8,E7,C,,,,1b^6b[8:1],2,3,4,5x,,,,1x,E1,E8,E7,C,,,,2x/E5,,,,6x/E4,,,,1x/B7,,,,8x/Cf,,7x,,6x,,5x,,4x,,3x,,2x,,1x,,8xh[8:1],,,,,,,,,,,,,,,,,,,,
{4}
2b^7-3^6pp5b[1:5]/6b-8-5-2-4qq5[1:5],2b/6b,
