&title=茶葉の誘惑✿灼熱!?ティ~パーティ~☆
&artist=ファル公/「The HoYoFair2024 "Flame Fusion Music and Art Festival" 」より
&first=0
&des=Ragna
&wholebpm=163
&demo_seek=
&demo_len=
&des_5=Ragna
&lv_5=13
&inote_5=(163){1},
2xh[4:7]/B6/B5/D6f/A6/A5,
,
8xh[4:3]/B3/B4/D4f/A3/A4,{16}
4xh[4:1]/6xh[4:1],,,,,,,,64,,,3,5,,5,,
Ch[4:7],,,,E8,,,,E7,,,,E6,,,,
A8,,,,A7,,,,A6,,,,A5,,,,{12}
3,3,5,4,4,6,3,3,4,2,2,7,{16}
A8/A1/D1/B1/B8/E1f,,,,B3/B4/E4f/A3/A4/D4,,,,B6/B5/E6f/A6/A5/D6,,,,73,,,,
6pp5[4:1],,,5,6,,4,,4>7[4:1],,,,7>4[4:1],,,,
5,,,,8bw4[8:1]b,,,,8b,,,,26,,,,
3qq4[4:1],,,4,3,,5,,5<2[4:1],,,,2<5[4:1],,,,
4,,,,1bw5[8:1]b,,,,1b,,,,73,,6,,
6h[16:3],,,5h[16:3],,,4qq2[8:1],,4-6[8:1],,,,,,3,,
3h[16:3],,,4h[16:3],,,5,,5pp7[8:1]*-3[8:1],,,,,,,,
6^3[8:1],,,,63,,,,{12}2,,2,7,,7,{16}
4qq4[4:1],,,,4/5^7q4[4:1]b,,,,5b/A4f,,,,,,,,
6xh[4:7]/5x-7-4-8-3-1[2:3],,,,,,,,,,,,,,,,
,,,,,,,,,,,,,,,,
3h[4:3]/4-2-5-1-6-8[2:3],,,,,,,,,,,,,,,,
1x-4-2[2:1]b,,,,,,,,,,,,,,,,
3h[4:3]/7^4[2:1],,,,,,,,,,,,,,,,
2v3-5-8[2:1]/7v6-4-1[2:1],,,,,,,,,,,,,,,,
3pp4-1[2:1]/7h[4:3],,,,,,,,,,,,,,,,
1b/A5/E5/B5,,,,2b/A6/E6/B6,,,,A7/E7/B7f/3b-8[8:1],,8x,,8x,,,,
7h[8:1],,5,6,5,,7,,2h[8:1],,4,3,4,,2,,
6h[8:1],,4,5,4,,36,,7v8[8:1]/2v1[8:1],,18,,,,,,
2,1,2,1,2,,38,,7,8,7,8,7,,16,,
5,4,5,4,5,,36,,2V48[4:1]b/7V51[4:1]b,,18,,E3/E7,,Cf,,
,,,,27,,,,3,5,3,5,4,6,4,6,
5qq5[32:7]b*pp5[32:7]b,,73,,,,,,A5,,,,6v1[8:1]/4q8[8:1],,,,
64,,,,3v8[8:1]/5p1[8:1],,,,35,,,,{12}3,4,2,{16}
1b/A5/E5/B5,,,,2b/A6/E6/B6,,,,3b/A7/E7/B7f,,,,6x-3[8:1]/2x,,,,
2x-7[8:1]/6x,,,,6x-3[8:1]/2x,,,,2x-7[8:1]/6x,,,,3x-6[8:1]/2x,,,,
7x-2[8:1]/3x,,,,3xq6[32:9]/7x,,,,6x/3x,,,,7bx-2[8:1],,,,
3x-6[8:1]/7x,,,,7x-2[8:1]/3x,,,,6x-3[8:1]/7x,,,,2x-7[8:1]/6x,,,,
6x-3[8:1]/2x,,,,2xp7[32:9]/6x,,,,2x/7x,,,,6bx,,,,
2-5[8:1]/8-4[8:1],,,,,,,,2qq7[4:1]b/7,,,,,,,,
5p4[4:1],,,,4>5[4:1],,,,C,,,,2bx-7[8:1],,,,
3x-6[8:1]/2x,,,,3x/8xh[4:1],,,,5h[4:1],,,,4>5[2:1],,,,
1bs5[4:1]b,,,,,,,,,,,,73,,,,
2pp8[4:1],,,1,2,,7,,7-4-2[4:1],,,,2-5-7[4:1],,,,
1,,,,8bw4[8:1]b,,,,8b,,,,26,,,,
7qq1[4:1],,,8,7,,2,,2-5-7[4:1],,,,7-4-2[4:1],,,,
8,,,,1bw5[8:1]b,,,,1b,,,,73,,2,,
2h[16:3],,,3h[16:3],,,4^6[8:1],,4qq2[8:1],,,,,,7,,
7h[16:3],,,6h[16:3],,,5,,5pp7[8:1]*^3[8:1],,,,,,,,
2q7[8:1],,,,27,,,,{12}8,,8,1,,1,{16}
5pp5[4:1],,,,4^2p5[4:1]b/5,,,,4b/A5f,,,,,,,,
4x<2[4:3]/3x,,,,,,,,C,,,,,,,,
5>7[4:3],,,,,,,,C,,,,,,,,
4<2[4:3],,,,,,,,C,,,,,,,,
5v3>7[4:3],,,,,,,,B7,,,,,,,,
4<2[4:3],,,,,,,,C,,,,,,,,
5s1[4:3]*s1[4:3],,,,,,,,B7,,,,,,,,
4<2[4:3],,,,,,,,C,,,,,,,,
5h[2:1],,,,,,,,{32}E8,B7x,B6,E6,E2,B2,B3,E4,{16}5x,6x,7x,8x,
1xh[8:1]/B1,,,,2xh[8:1]/B2,,,,3xh[8:1]/B3,,,,4xh[8:1]/B4,,,,
5xh[8:1]/B5,,,,6xh[8:1]/B6,,,,7xh[8:1]/B7,,,,8xh[8:1]/B8,,,,
2xh[8:1]/B2,,,,2xh[8:1]/B2,,,,3xh[8:1]/B3,,,,4xh[8:1]/B4,,,,
5xh[8:1]/B5,,,,6xh[8:1]/B6,,,,7xh[8:1]/B7,,,,1bx/8bx,,,,
4xh[8:1]/3-1[8:1],,,,8xh[8:1],,,,5xh[8:1]/6-8[8:1],,,,1xh[8:1],,,,
3xh[8:1]/4q8[8:1],,,,1xh[8:1],,,,6xh[8:1]/5p1[8:1],,,,8xh[8:1],,,,
27,,,3,4,,15,,1w5[8:1]*w5[8:1]/5,,,,C,,,,
,,,,B2/B3/E3,,,,B7/B6/E7,,,,1b,,,,
3qq6[4:1],,,4,3,,7,,7^5-1[4:1],,,,1^3-7[4:1],,,,
3,,,,1bw5[8:1]b,,,,1b,,,,37,,,,
6pp3[4:1],,,5,6,,2,,2^4-8[4:1],,,,8^6-2[4:1],,,,
6,,,,8bw4[8:1]b,,,,8b,,,,26,,1,,
1h[16:3],,,3h[16:3],,,4-6^7[8:1],,4qq2[8:1],,,,,,8,,
8h[16:3],,,6h[16:3],,,5,,5-3^2[8:1]*pp7[8:1],,,,,,,,
3^6[8:1]*-6[8:1],,,,3,,,,{12}7,,7,2,,2,{16}
5pp5[4:1],,,,4^2p5[4:1]b/5,,,,4b/A5f,,,,,,8x,,
47,,,25,,,17,,2-6[8:1]/6h[4:1],,,,,,8,,
75,,,24,,,18,,2bqq5^6[4:3]b/7bpp4^3[4:3]b,,,,,,,,
,,,,,,,,,,,,,,,,
3-7[8:1]/4-8[8:1],,,,3/4/C,,,,6-2[8:1]/5-1[8:1],,,,6/5/C,,,,
4b-8[8:1]/5b-1[8:1],,,,5b^7q4[4:1]b/4bqq4[4:1]b,,,,5b/4b/Cf,,,,,,,,
2bx-5[8:1]b/1bx,,3bx/8bx,,2bx/1bx,,,,
7bx-4[8:1]b/8bx,,6bx/1bx,,7bx/8bx,,,,
2bx-5[8:1]b/1bx,,3bx,,1bx-6[8:1]b/2bx,,8bx,,2bx-5[8:1]b/1bx,,3bx,,2bx/Cf,,,,
7bx^4[8:1]b/8bx,,6bx/1bx,,7bx/8bx,,,,
2bx^5[8:1]b/1bx,,3bx/8bx,,2bx/1bx,,,,
7bx^4[8:1]b/8bx,,6bx,,8bx^3[8:1]b/7bx,,1bx,,7bx^4[8:1]b/8bx,,6bx,,7bx/Cf,,,,
2bxv5[8:1]b/1bx,,3bx/8bx,,2bx/1bx,,,,
7bxv4[8:1]b/8bx,,6bx/1bx,,7bx/8bx,,,,
2bxv5[8:1]b/1bx,,3bx,,1bxv6[8:1]b/2bx,,8bx,,2bxv5[8:1]b/1bx,,3bx,,2bx/Cf,,,,
7bx^6-4[8:1]b/8bx,,6bx/1bx,,7bx/8bx,,,,
1bx-7-2-6-3-5<4[59.27272727#44:25]b/2bxh[8:3],,,,,,,,,,,5xh[16:25],
,,,,,,,,,,,,,,,,
,,,,,,,,,,,,,,,,
E
