&title=Lethal Dose
&artist=sky_delta
&first=0.02
&des=めグミ
&lv_5=14
&inote_5=(206)
{4},,,,
{8}1/7h[4:1],,1s5[8:3],,1,,,8<5[8:5],,,,,E4,,E3,,
8/2h[4:1],,8v7[4:1],,8,,,1h[8:3],,,{16}E8,E7,E6,E5,E4,E3,E2,E1,D8,D7,D6,D5,D4/2xh[4:2],,,,
{4}3v8[4:1],{8}3,2q4[8:4],,2,,D8,D7,D6,D5,D4,D3,D2,
8xz4-2-5<7b[8:7],,8,,,,,B2/E3/B3/A3/Ch[8:7],,,,,
8-4[8:1],,B8,,
3h[4:1],,1v4[8:1],,1,2>8[4:2],,5h[8:3],,,,,5,,16,6,
1,2,3,8-5[8:1]/4,,8,,2h[8:2],,3q4[8:3],,7h[8:3],,,,,
26,3-1[8:1],5,73,,,73,6,4,2/6h[16:5],{16}1x,8x,7x,,5xV74[4:1],4x,3xh[4:1],,5,,,,
{8}3,3,6,6,
{16}4,5,3,5,4,5,3,5,4qq7[4:2],,,,{8}4,8,7,6,5-1b[8:1],,
{4}4>5[4:15]`Cf,,,,,,,,,,,,,,,{16},,2x,3x,
{4}4x>1[4:3],,,,8<5[4:3],,,,1-5[4:3],,,,
{16}7x,8x,1x,2x,3x,4x,5x,6x,7x-3[8:1]/3x-7[8:1],,,,,,,,
{8}1b-5[8:1],,1,7-4[8:1],,7/1>4[8:1],,1,,
7h[8:1],5h[8:1],4h[8:1],{16}2,4,2,4,2pp4[4:1],,2,,4>8[4:1],,,,,,,,7,,7h[16:2],,,,
{16}1x,2x,8x,7x,6x,5x,1x,2x,8x,7x,1x,2x,3x,4x,B8,C,B4,,
{32}3x/5x,2x/6x,7x/1x,,,,,,{16}5,,,3/6h[16:3],,,4p2[8:3],,7h[8:1],,4,,,,7x,6x,5x,,1xs5[4:1],,4xb,,,,,,
7qq8[8:3],,,,,,8>4[8:2],,,,4-7[8:1],,,,1,,2h[8:3],,,,,,7,,7-4[8:1],,,,7,,1b,,,,
{32}2bxv1[8:1]/7bxv8[8:1],E3/E7,B3/B6,B4/B5,E5,,,,
{16},,,,34,,6,5,7,,8-5[8:2],,,,E5,,C,,E1,,
1x,2x,3x,4x,5x/7h[4:1],,,,5,,8/7>3[6:1],,,,2h[4:1]/7,,
E4,E5,E6,E7,E8,,8x/2x-4[8:1],,,,2,,8,,8-4[8:1],,,,8,,1h[4:1],,,,
{32}5bx,2x/6x,3x/7x,4x/8x,,,,,
{16}1h[16:3],,,3h[16:3],,,5bq7[8:3],,2,,5,,,,2x,3x,4x,,8xz4[4:1],,5xb,,,,,,
2pp1[8:3],,,,,,1V75[8:2],,,,5-2[8:1],,,,8,,7h[4:1],,,,3,4,5,,7,,6,,5,,4w8[8:1],,,,
{8}4``B4``Cf``B8,,,,2-4[8:1],4>3-8[6:1],2,6,,7,7,7,{16}1,8,2,7,1v6[8:1],8,2,7,{8}1v4[8:1]*>4[8:1],,1qq3[8:3],,6h[4:1],,,
4q8[8:1],,4,2,,3-8[8:1]/8-4[8:1],,8x/3x,,
{32}1x/5x,2x/6x,3x/7x,4x/8x,,,,,
{16}5x,,,B8/E8,5,,E7,,5,,C,,2,,,B5/E5,2,,E7,,2,,5,,4,,3,,
{8}2,2,7,7,
{16}1,8,2,7,3,6,4<2[8:4],,,,7,,7h[8:3],,,,,,
E7,E6,E5,E4,E3,E2,
{4}1xp5[8:1],21,{8}8-3[8:1],4-8[8:1],8qq3[8:4],4,,,,,
{4}2xh[8:1],7xh[8:1]/5xh[8:1],
{8}7-5[8:1],5-3[8:1],7,2v5[8:1],,8<4[8:3],,
{8}8,,,,{16}1,2,3-1[8:1],,{8},34,,
{8}8<4[8:4],,,5>1[8:4]
,,,2<6[8:4],,,6,,,5-2[8:1]*-8[8:1],,5,,
{8}1xh[4:1]/6x,,6-4[8:1],2-5[8:1],6,2pp1[8:3],6,2,,,,,8w4[8:1],,,,
{8}2-6[8:1]/6,,26,,7-4[8:1],,7,1>4[8:1],,1,8,8,8-3[8:1],,8/5h[4:1],,
2,1,8,7-5[8:1]/3-7[8:1],,7V15[8:3]/3,,,,,,6>3[8:1],,6,2,,
37,2-4[8:1],8,62,,,62,7-3[8:1],1-4[8:1],7-5[8:1],1-5[8:1],7,1,7,8,8,
{16}4,7,4,7,3,6,3,6,2,5,2,5,1,4,1,4,
1,2,3,4,7,8,1,2,5,4,3,2,8-4[8:1],7,6,5,{4}4v1[4:6]*v7[4:6]/8b`Cf,,,,,,,,
{16}8-4[8:7],1,8,1,8,1,8,1,8,1,8,1,8,1,8,1,8,,,,,,
{8}37,2,8,3,1-6[8:1]/2-5[8:1],,1b/2b,,74,6,1,7,8-4[8:1]/7-4[8:1],,8b/7b,,
2pp1[4:1],,2/8<5[8:1],,8,
,2,4,3,5,4,6,5b-3[8:1]/7b-5[8:1],,5b-1[8:1]/7b,,2b,,2qq5[8:3],7,2b,,,,8-4[8:1],,8,3,2-7[8:1]/5,,2/6-3[8:1],,6/1-4[8:1],,1/5<4[4:3],,5b/2h[4:2],,,,,,,
{16}62,73,8b-5[8:1]/4b-1[8:1],,,,,,,,
{8}26,7,1,6,8v3[8:1]/7v4[8:1],,8b/7b,,25,3,8,2,1-5[8:1]/2-5[8:1],,1b/2b,,
7-4[8:1]/3-8[8:1],,7-2[9:1]/3-6[8:1],,73,
,7,5,6,4,5,3,4b/2b-6[8:1],,7bh[4:2]/2b,,{16}8,1,2,3,,8,1,2,3,4,5/1b-4[8:1],,,,
{8}1,7p3[8:1],,7,2,1-5[8:1],,1-3[8:1]/8-3[8:1],,1-6[8:1]/8-5[8:1],,1/8>6[8:3],,3h[8:1]/8,,,
2-6[8:1],1-5[8:1],2>5[8:1],1,2,,
{16}7,8,1,2,3,4,5,6,
{32}7/2b,3,4,5,6,7,8,1,2b-6[4:5],3,4,5,6,7,8,1,
{8}2b,,,E1,,,E5,,,,,,
4-1[8:1]/5-8[8:1],,,,
{8}7b-4[8:1],,7,2-5[8:1],,2/8<5[8:1],,8,,
2h[8:1],4h[8:1],5h[8:1],{16}7,5,7,5,7qq5[4:1],,7,,5<1[4:1],,,,,,,,2,,2h[16:2],,,,
{16}8-3[8:1],,,,8,,1,,1-4[8:1],,,,1,,5h[8:1],,,,
{32}6x/4x,7x/3x,2x/8x,,,,,,{16}4,,,6/3h[16:3],,,5q7[8:3],,2h[8:1],,5,,,,2x,3x,4x,,8xz4[4:1],,5xb,,,,,,
2pp1[8:3],,,,,,1<5[8:2],,,,5-2[8:1],,,,8,,7h[8:3],,,,,,2,,5/1-5[8:1],,,,51,,6x,7x,8x,1x,
{8}2x>7b[4:11]/C````E2````D2,,,C````E8````D8,,,C````E4````D4,,,C````E6/E2````D6/D2,
&inote_7=(206)
{4},,,,
{8}1/7h[4:1],,1s5[8:3],,1,,,8<5[8:5],,,,,E4,,E3,,
8/2h[4:1],,8v7[4:1],,8,,,1h[8:3],,,{16}E8,E7,E6,E5,E4,E3,E2,E1,D8,D7,D6,D5,D4/2xh[4:2],,,,
{4}3v8[4:1],{8}3,2q4[8:4],,2,,D8,D7,D6,D5,D4,D3,D2,
8xz4b[8:4],,8,,,,,Ch[8:7],,,,,
8-4[8:1],,B8,,
3h[4:1],,1v4[8:1],,1,2>8[4:2],,5h[8:3],,,,,5,,16,6,
1,2,3,8-5[8:1]/4,,8,,2h[8:2],,3q4[8:3],,7h[8:3],,,,,
26,3-1[8:1],5,73,,,73,6,4,2/6h[16:5],{16}1x,8x,7x,,5xV74[4:1],4x,3xh[4:1],,5,,,,
{8}3,3,6,6,
{16}4,5,3,6,4,5,3,6,4qq7[4:2],,,,{8}4x,8x,7x,6x,5x-1b[8:1],,
{4}4>5[4:15]`Cf,,,,,,,,,,,,,,,{16},,2x,3x,
{4}4x>1[4:3],,,,8<5[4:3],,,,1-5[4:3],,,,
{16}7x,8x,1x,2x,3x,4x,5x,6x,7x-3[8:1]/3x-7[8:1],,,,,,,,
{8}1b-5[8:1],,1,7-4[8:1],,7/1>4[8:1],,1,,
7h[8:1],5h[8:1],4h[8:1],{16}2,4,2,4,2pp4[4:1],,2,,4>8[4:1],,,,,,,,7,,7h[16:2],,,,
{16}1x,2x,8x,7x,6x,5x,1x,2x,8x,7x,1x,2x,3x,4x,B8,C,B4,,
{32}3x/5x,2x/6x,7x/1x,,,,,,{16}5,,,3/6h[16:3],,,4p2[8:3],,7h[8:1],,4,,,,7x,6x,5x,,1xs5[4:1],,4xb,,,,,,
7qq8[8:3],,,,,,8>4[8:2],,,,4-7[8:1],,,,1,,2h[8:3],,,,,,7,,7-4[8:1],,,,7,,1b,,,,
{32}2bxv1[8:1]/7bxv8[8:1],E3/E7,B3/B6,B4/B5,E5,,,,
{16},,,,34,,6,5,7,,8-5[8:2],,,,E5,,C,,E1,,
1x,2x,3x,4x,5x/7h[4:1],,,,5,,8/7>3[6:1],,,,2h[4:1]/7,,
E4,E5,E6,E7,E8,,8x/2x-4[8:1],,,,2,,8,,8-4[8:1],,,,8,,1h[4:1],,,,
{32}5bx,2x/6x,3x/7x,4x/8x,,,,,
{16}1h[16:3],,,3h[16:3],,,5bq7[8:3],,2,,5,,,,2x,3x,4x,,8xz4[4:1],,5xb,,,,,,
2pp1[8:3],,,,,,1V75[8:2],,,,5-2[8:1],,,,8,,7h[4:1],,,,3,4,5,,7,,6,,5,,4w8[8:1],,,,
{8}4``B4``Cf``B8,,,,2-4[8:1],4>3-8[6:1],2,6,,7,7,7,{16}1,8,2,7,1v6[8:1],8,2,7,{8}1v4[8:1]*>4[8:1],,1qq3[8:3],,6h[4:1],,,
4q8[8:1],,4,2,,3-8[8:1]/8-4[8:1],,8x/3x,,
{32}1x/5x,2x/6x,3x/7x,4x/8x,,,,,
{16}5x,,,B8/E8,5,,E7,,5,,C,,2,,,B5/E5,2,,E7,,2,,5,,4,,3,,
{8}2,2,7,7,
{16}1,8,2,7,3,6,4<2[8:4],,,,7,,7h[8:3],,,,,,
E7,E6,E5,E4,E3,E2,
{4}1xp5[8:1],21,{8}8-3[8:1],4-8[8:1],8qq3[8:4],4,,,,,
{4}2xh[8:1],7xh[8:1]/5xh[8:1],
{8}7-5[8:1],5-3[8:1],7,2v5[8:1],,8<4[8:3],,
{8}8,,,,{16}1,2,3-1[8:1],,{8},34,,
{8}8<4[8:4],,,5>1[8:4]
,,,2<6[8:4],,,6,,,5-2[8:1]*-8[8:1],,5,,
{8}1xh[4:1]/6x,,6-4[8:1],2-5[8:1],6,2pp1[8:3],6,2,,,,,8w4[8:1],,,,
{8}2-6[8:1]/6,,26,,7-4[8:1],,7,1>4[8:1],,1,8,8,8-3[8:1],,8/5h[4:1],,
2,1,8,7-5[8:1]/3-7[8:1],,7V15[8:3]/3,,,,,,6>3[8:1],,6,2,,
37,2-4[8:1],8,62,,,62,7-3[8:1],1-4[8:1],7-5[8:1],1-5[8:1],7,1,7,8,8,
{16}4,7,4,7,3,6,3,6,2,5,2,5,1,4,1,4,
1,2,3,4,8,6,8,6,8,7,6,5,8-4[8:1],1,2,3,{4}4v1[4:6]*v7[4:6]/8b`Cf,,,,,,,,
{16}8-4[8:7],1,8,1,8,1,8,1,8,1,8,1,8,1,8,1,8,,,,,,
{8}37,2,8,3,1-6[8:1]/2-5[8:1],,1b/2b,,74,6,1,7,8-4[8:1]/7-4[8:1],,8b/7b,,
2pp1[4:1],,2/8<5[8:1],,8,
,2,4,3,5,4,6,5b-3[8:1]/7b-5[8:1],,5b-1[8:1]/7b,,2b,,2qq5[8:3],7,2b,,,,8-4[8:1],,8,3,2-7[8:1]/5,,2/6-3[8:1],,6/1-4[8:1],,1/5<4[4:3],,5b/2h[4:2],,,,,,,
{16}62,73,8b-5[8:1]/4b-1[8:1],,,,,,,,
{8}26,7,1,6,8v3[8:1]/7v4[8:1],,8b/7b,,25,3,8,2,1-5[8:1]/2-5[8:1],,1b/2b,,
7-4[8:1]/3-8[8:1],,7-2[9:1]/3-6[8:1],,73,
,7,5,6,4,5,3,4b/2b-6[8:1],,7bh[4:2]/2b,,{16}8,1,2,3,,8,1,2,3,4,5/1b-4[8:1],,,,
{8}1,7p3[8:1],,7,2,1-5[8:1],,1-3[8:1]/8-3[8:1],,1-6[8:1]/8-5[8:1],,1/8>6[8:3],,3h[8:1]/8,,,
2-6[8:1],1-5[8:1],2>5[8:1],1,2,,
{16}7,8,1,2,3,4,5,6,
{32}7/2b,3,4,5,6,7,8,1,2b-6[4:5],3,4,5,6,7,8,1,
{8}2b,,,E1,,,E5,,,,,,
4-1[8:1]/5-8[8:1],,,,
{8}7b-4[8:1],,7,2-5[8:1],,2/8<5[8:1],,8,,
2h[8:1],4h[8:1],5h[8:1],{16}7,5,7,5,7qq5[4:1],,7,,5<1[4:1],,,,,,,,2,,2h[16:2],,,,
{16}8-3[8:1],,,,8,,1,,1-4[8:1],,,,1,,5h[8:1],,,,
{32}6x/4x,7x/3x,2x/8x,,,,,,{16}4,,,6/3h[16:3],,,5q7[8:3],,2h[8:1],,5,,,,2x,3x,4x,,8xz4[4:1],,5xb,,,,,,
2pp1[8:3],,,,,,1<5[8:2],,,,5-2[8:1],,,,8,,7h[8:3],,,,,,2,,5/1-5[8:1],,,,51,,6x,7x,8x,1x,
{8}2x>7b[4:11]/C````E2````D2,,,C````E8````D8,,,C````E4````D4,,,C````E6/E2````D6/D2,
