&title=irony
&artist=Photon Maiden
&first=0.38
&des=anemone
&des_5=anemone
&lv_5=13
&inote_5=(154){4}7pp4[4:3],,,,{1}3qq7[4:3],
5pp2[4:3],
4qq8[4:3],
{8}6,4,5,{16}2,3,{4}4,{8}7,4,
6,3,5,{16}2,3,{4}4,{8}7,4,
6,3,5,{16}2,3,{4}4,{8}6,3,
5,2,6,{16}4,3,{4}5/2<7[8:1],2/5-8[8:1],
5,{8}3,3-8[8:1]*-6[8:1],,3,,7h[8:5],
,5,4,3,{4}2-5[8:1],2/7>2[8:1],
7,{8}5,5-8[8:1]*-2[8:1],,5,,1qq6[2:1],
,5,4,3,{4}2,7-2[8:1]/3-6[8:1],
3/7,8<5[16:3]/4>1[16:3],{8}4/8,,,5h[2:1],
,2,3,4h[1:1],,7,6,5>7[8:3],
,,,,,4,5,5,
,6h[8:1]/4h[8:1],,3h[8:1]/7h[8:1],,2h[8:1]/8h[8:1],,1w5[8:13],
,,,,,,,,,,,,,,,,{1}3h[2:1]/4h[2:1],
{8}5h[2:1],6h[8:3],,,,,,,7,
7qq5[8:3],{4}7h[4:1],{8},,,,2,
2pp4[8:3],{4}2h[4:1],{8},,,,5,
5-8[8:3],{4}5h[4:1],{8},,,,4,
4<8[2:1]*>8[2:1],{4}4,,,,5/2,
{8}3,4p8[4:1],,4/5h[4:1],
,,,4,5,3,4,2,
2V86[2:1]*V46[2:1],,,,,,,4qq7[8:7]*pp1[8:7],
,,,,,,,,,,{4}4/7,
{8}6,5q1[4:1],,5/4h[4:1],
,,,5,5,6,6,7,
7/8pp4[2:1],,,,,,,5V37-1-5[8:5]*-7-3V15[8:5],
,,,,,,,,8-4[8:1],
4,3,2,7-2[8:1],3,4,5,
8-5[8:1],4,3,2,{4}7<2[4:1],2<6[4:1],
{2}6>4[8:1],{8}1-5[8:1],8,7,6,
2-7[8:1],6,5,4,6/2,3/7,{4}4-1[8:1]/8-5[8:1],
4/8,{8}3/7,4,5/6<7-1[8:1],4,3,2,
5<6-8[8:1],4,3,2,1>2-4[8:1],8,7,6,
2>3-5[8:1],6,7,{16}8,8,{48},,,,,,{24}7/1,2,3,4,5,6,7,8,1,
{4}5/2<4[4:1],4p3[4:1],{8},,,,8/1,
8/1,8/1,1/8,,1/8,1/8,1/8,
,1/8,1/8,1/8,,1/2,1/2,1/2,
,1/2,2/1,1/2,,8/7,7/8,7/8,
,8/7,8/7,7/8,,6/5,6/5,5/6,
,5/4,4/5,5/4,,3/4,4/3,3/4,
,1/2,1/2,1/2,,8/1,8/1,8/1,
,8/7,7/8,7/8,,6/4,4/6,6/4,
,5/3,5/3,5/3,,,{4}2-7[8:1]/6-3[8:1],
6/2,{8}4/8,4/8,,1-5[8:1],5,1,
,7-3[8:1],3,7,,8-4[8:1],4,8,
,2-6[8:1],6,2,,5-8[8:1],4,5,
,4-1[8:1],5,4,,6/7-2[8:1],7/6,7/6,
,5/6-1[8:1],6/5,6/5,,4/3-8[8:1],4/3,4/3,
,3/2-7[8:1],2/3,2/3,,8-5[8:1]/1-4[8:1],1/8,1/8,
{1},{4},,,{16},,,{32}1x-5[16:17]*-5[16:17],
2x/8x,
7x/3x,6x/4x,{1},{4},{16},,,{8}3x/7x,
1x-5[8:1],5xw1[8:1],1bx,
,,6>1[4:1],6h[8:3],,,,,3/5,
4<3[8:3],6h[2:1],4,,,,,6/2,
5>7[8:3],2h[2:1],5,,,,,4/8,
3/7,,1-5[8:1],5-8[8:1]*-2[8:1],1,,,7-3[8:1],
3-7[8:1],,,,,{4}2/6,
{8}1-5[8:1],5-1[8:1],,,,,{4}3/7,
{8}2v5[8:1],5v8[8:1],,,,,{4}2/6,
{8}4/3,2/5,{16},,8,7,6/2,,,3/7,,4/8,{8}4/8,
6/2<7[8:1],5,2/6,5,2/6-2[8:1],3,6/4,5,
7/5-1[8:1],6,5/4,3,2/8-4[8:1],1,8/7,6,
3/5<6-8[8:1],2,5/3,2,8/1>2-4[8:1],7,6/1,5,
3/5<6-8[8:1],8-4[8:1],5/1,2,1w5[8:1],2/8,{4}1,
{8}6/4,7,6/4,2,4/6,8,6/4,{16}1,2,
{8}3/5,6,3/5,1,3/5,7,3/5,{16}8,1,
{8}2/6,2/6,3/7,7/3,4/8,4/8,1/5,{16}5/1,8,
{32}7,6,5,4,3,2,1,8,7,6,5,4,3,2,1,8,7,6,5,4,3,2,1,8,{4}7,
E8/A3/E4/A4/D5/E5/A5/D6/D7/A6/E7/A2/D2/B7/B6/B5/B4/B3/D3/E3/B2/E2/B1/A7/B8/E1/A1/D1/A8/D8/D4/Cf,,,D8/B8/B7/A7/A8/E8f/2-6[8:1]*-6[8:1],
{2}2qq5[1:1],D8/A8/D1/E8/E1/B8f,
{4},6b-3b[8:1],{8},1b-5b[8:1],,,{2}7bpp4b[1:1],
A1/B1/D2/A2/B2/E2f,
{4},2b-7b[8:1],{8},6b,{4}5b-8b[8:1]*-2b[8:1],
{2}5bqq8[1:1],A2/B2/D3/A3/B3/E3f,
{4},1b-5b[8:1],{8},6b-2b[8:1],,,{2}3bpp1[1:1],
A7/D8/E8/E7/D7/B7f,
{4},8b-5b[8:1],{8},4b-8[8:1],{4}3,
{8}1-4[8:1],7,6,5,2-7[8:1],4,5,6,
{4}1>4[8:1],5/1<6[8:1],5/1-5[8:1]*-5[8:1],1,
{8}8-5[8:1],2h,3h,4h,7-2[8:1],5h,4h,3h,
{4}8<5[8:1]*>3[8:1],8,{8}1-4[8:1]/7-4[8:1],1/7,{4}1/7,
{8}2-5[8:1],8,7,6,4-8[8:1],5,6,7,
{4}7-3[8:1],7,{8}8-5[8:1]/1-4[8:1],1/8,{4}8/1,
2h[8:1]/7h[8:1],3h[8:1]/6h[8:1],4h[8:1]/5h[8:1],{8}6/4,5/3,
2/1,8/1,8/7,{16}5,6,5,6,{8}5,{4}8-5[8:1]/4-1[8:1],
4/8,{8}7/2-5[8:1],1,2/7-4[8:1],8,7/2-5[8:1],1,
2/7-3[8:1],8,7/2-6[8:1],1,2/8,7,7/5,6/4,
3/5-8[8:1],6,5/4-1[8:1],3,4/5-8[8:1],6,5/4-8[8:1],3,
4/5-1[8:1],6,5/4-8[8:1],3,4/5,6,7/1,8/2,
1/3-8[8:1],3,7-4[8:1],7,2<7[8:1],2,6>3[8:1],6,
8-3[8:1],8,4-7[8:1],4,1pp4[4:3],1,8,8,
7,7,6,6,5,5/6,5/4,4/3,
{16}5/2,5/2,,,{8}7/4,{16}5,5,6-2[8:1],6,,,{4}3-7[8:1],
3/5-1[8:1],{8}5/4,4-1[8:1]*-7[8:1],,4,,2/8pp5[8:3],
,3,3,4,{4}4-7[8:1],{8}4/3,4,
{4}6/5-1[8:1],{8}5/6,8-5[8:1]*-3[8:1],,8,,2/1qq6[8:3],
,3,3,4,4,5,6/8,1/5,
3/4,5,3/4,6,3/4,7,3/4,8,
5/6,4,5/6,3,6/5,2,5/6,{16}1,2,
{8}3/7,3/7,2/6,2/6,{32}1/5,8,7,6,5,4,3,2,1,8,7,6,5,4,3,2,
{8}1,,,,,,,1w5[8:29],
{1},,,,{8}3,
5,4,{16}7,6,{4}5,{8}2,5,
3,6,4,{16}7,6,{4}5,{8}2,5,
3,6,4,{16}7,6,{4}5,{8}3,6,
4,7,3,{16}5,6,{8}7/4,2,5/3,8,
{4}1/7h[4:15],E1,E2,E3,
E4,C,E8,E1,
E7,E6,B3,B4,
E5,E2,E3,E4,
,2h[2:7]/E8,E7,E6,
B5,B4,C,B8,
B1,E2,E3,E4,
A8,A7,A6,A5,
8h[4:15],1h[8:1],2h[8:1],3h[8:1],
4h[8:1],5h[8:1],6h[8:1],7h[8:1],
1h[8:1],2h[8:1],3h[8:1],4h[8:1],
3h[8:1],2h[8:1],1h[8:1],1-5[8:1],
,8h[8:1]/1h[8:1],7h[8:1]/8h[8:1],7h[8:1]/6h[8:1],
6h[8:1]/5h[8:1],5h[8:1]/4h[8:1],4h[8:1]/3h[8:1],3h[8:1]/2h[8:1],
2h[8:1]/1h[8:1],7h[8:1]/5h[8:1],6h[8:1]/4h[8:1],5h[8:1]/3h[8:1],
4h[8:1]/2h[8:1],8h[8:1]/7h[8:1],8h[8:1]/1h[8:1],2h[4:15],
{1}Cf,
{4},,,,,,,,,,,6pp4[2:3],
,,,,,,,3qq5[2:3]*qq5[2:3],
,,,,,,,7pp4[2:7],
{8},,,,,,,,,,,,,2>7pp4[8:13]*>7pp4[8:13],
,,,,,,,,,,,,,,,,2/1,
5/4,
8/7,1,7/8,2,7/8,3,7/8,4,
7/1,5,2/8,6,3/1,8,2/4,{16}1,2,
{8}3/5,6,4/5,7,5/4,8,5/4,1,
4/6,2,5/7,3,6/8,4,7/1,{16}5,6,
{8}7/3,5/6,4/8,2/1,3/7,5/4,2/6,4/3,
8/7,2/1,7/5,3/2,8/4,7/2,3/6,{16}5,4,
5,4,5,4,5,4,{32}5,6,7,8,1,2,3,4,5,6,7,8,1,2,3,4,{8}5>6[8:5],
,,,,,,,,{1}8b-4[1:1]*-4[1:1],
{8},,,,2x/6x,8x-4[8:1],4xw8[8:1],8x,
{16},,,,6,4<2[16:5],{8}5h[8:3],{16},,,,,,,,7,
5,{8}7,{16}3,5>7[16:5],{8}4h[8:3],{16},,,,,,,,5,
3,{8}5,{16}7,1<3[16:5],{8}8h[8:3],{16},,,,,,,,4,
6,{8}4,{16},,2,8,2,8,1,7,1,7,8,6,
8,6,{8}8,{16}5,3<1[16:5],{8}4h[8:3],{16},,,,,,,,3,
1,{8}3,{16}7,1<3[16:5],{8}8h[8:3],{16},,,,,,,,7,
1,{8}7,{16}3,5>7[16:5],{8}4h[8:3],{16},,,,,,,,6/5,
4,{8}3,{16},,8,7,6/4,,,5/3,,8/2,{8}2/8,
7/1-5[8:1],6,1/5,7,2/8-4[8:1],3,8/4,3,
4/5-1[8:1],7,5/6,7,6/4-8[8:1],2,4/3,2,
4/7-2[8:1],6/5,7/8,1,5/2-7[8:1],3/4,2/1,8,
1>2-4[8:1],4-8[8:1],1/6,5,5w1[8:1],4/6,{4}5b,
{8}5/6,4,5/6,3,5/6,2,5/7,1,
3/4,5,3/4,6,2/4,7,1/4,{16}8,7,
{8}6/5,5/4,4/3,3/2,2/1,8/1,8/7,{16}7/6,5,
4,8,4,8,4,8,4,8,{32}4,5,6,7,8,1,2,3,4,5,6,7,8,1,2,3,
{1}4,
E
