&title=ハレ晴レユカイ
&artist=平野綾, 茅原実里, 後藤邑子
&first=0.447
&des=情報統合思念体
&lv_5=13+
&inote_5=(172)
{16}2,6,2,6,3,7,3,7,2-6[8:1],6,3,7,{4},
{8}4b/8b,,65,7<4[8:1],,2,8,,5b/1b,,34,2>5b[8:1],,7,1,,
{8}4bV63[8:3]/8bV27[8:3],,,,,,4x/8x,4xh[4:4]/8x,,2x-7[8:1],,,,8x,7x,6x,
{4}3xb/5xb,3h[8:1]/5h[8:1],4h[8:1]/6h[8:1],46,
{4}35,3h[8:1]/5h[8:1],4h[8:1]/6h[8:1],4/6<8[8:1],
{4}5,4/6<8[8:1],5,2-4[8:1]/6-1[8:1],,2-4[8:1]/6-1[8:1],,2b/7b,
{4}8<5[8:1]/5,3,{8}1>4[8:1]/4,,6,,
{4}8<5[8:1]/5,3,{16}1h[16:3],,,3h[16:3],,,4,,
{4}4-8-2[8:3]/5V72[8:3],,,3b/6b,
{8}4-1[8:1],5-8[8:1],4,5,,36,3<6<8b[4:2]/6,36,
{4}3xh[4:2],,,1bs5[4:2]/8b,,,,4b/5b>1[4:2]*<1[4:2],,,,1bs5[4:2]/8b,,,,4b/5b,
{8}6b-4[8:1],3-6[8:1],6,3b,,7-3[8:1],8,7b/1b,,2-6[8:1],1,2b/8b,,54,3b/6b<3b[4:2]*-1<8-3[4:2],,
{4},,,{8}36,1b-5[8:1]/8b-4[8:1],
{8},1b/8b,,3b/6b,{4}5b/7b,B7f,
{8}
7/3bh[8:1],7,6/3h[8:1],6,5-7[8:1]/3h[8:1],,3h[8:1],,
8/3h[8:1],8,6/3h[8:1],6,4-8b[8:1]/3h[8:1],,3h[8:1],,
7pp2[4:2]/3bh[8:1],,3h[8:1],,3h[8:1],,3h[8:1],,
{48}E8/E4,B7`B3,B6`B2,,{12},,{48}E8/E4,B7`B3,B6`B2,,{12},,{48}E8/E4,B7`B3,B6`B2,,{12},,{4}1x/8x,
{8}
5b<8[16:3]/4b>1[16:3],,,A8/A1/E1f,,36,3x/6x,,
8b-5[16:3]/1b-4[16:3],,,A5/A4/E5f,,2-6[8:1],7-3[8:1],2,
7,,18,2v4[8:1]/6v8[8:1],,26,,7b/3b,
,1b/5b,,4b<6-8>2b[4:1]/6b,,Cf,,,
8-4[8:1],8x,A4f,,2-4[8:1]/7-5[8:1],,27,,
18,27,4qq1[8:3]/5pp8[8:3],,,,,,
{48}D2/D7,A2`A7,D3`D8,,{12},,{48}D2/D7,A2`A7,D3`D8,,{12},,{48}D2/D7,A2`A7,D3`D8,,{12},,{48}D2/D7,A2`A7,D3`D8,,{12},,
{4}4qq5[8:3]/5pp4[8:3],,,3x/6x,
{4}6bp1[8:1]/5b>2[8:1],,3q8[8:1]/4<7[8:1],,
{8}3b/6b,,45,1bw5b[8:1]/8b,,Cf,,,
{8}7b/3-5b[8:1],,7b/3-1[8:1],,7b/3-5b[8:1],,7b/3,,
E2/B2/B6/E6/A6/A2,,E4/B3/B7/E8/A7/A3,,E2/B2/B6/E6/A6/A2,,3/7qq5[4:1],,
5,,1-3<4[8:1],2x,6,,3/7qq5b[4:1],,
5,,1-3<4b[8:1],2x,6,,5<4b[16:7]*pp4[16:7],,
,,,,,E2/B2/E8/B7,,45,
3b/6b,,,,,,81,2b/7b,,34,1b/5b,,,65,8b/4b,,,3bqq5[8:4],6bpp4b[8:3],3b,6b,,E5f,,,Cf/E3/E7,,,18,1b/8b,,4<7b[8:1]/3,2,1b,,1>4b[8:1]/8,7,6b,,6-2b[8:1]/5,,6xbh[8:1]`Cf,
