&title=コぇちっちゃ<てゴ×ンネ
&artist=cosMo@暴走P feat.可不
&first=0.07
&lv_5=14
&des=ふめんむずかし<てゴ×ンネ
&inote_5=(220)
{4},,,,
{8}7,7,7x-5[8:1],,2-4[8:1],2x,,,7,7,7x-5[8:1],,2-4[8:1],,,,
8-4[8:1],,1-3[8:1],,8-4[8:1],,1-3[8:1],,7-2-8-6[8:4],,7,,3,,2,,
{8}1,1,1x-3[8:1],,8-6[8:1],8x,,,1,1,1x-3[8:1],,8-6[8:1],,,,
2-7[8:1],,6-3[8:1],,2-7[8:1],,6-3[8:1],,1-3v4-6[8:4],,1,,6,,7,,
{8}8,8,8x-3[8:1],,1v7[8:1],1x,,,8,8,8x-3[8:1],,1v7[8:1],,,,
6x>2[4:1],,2x>6[4:1],,C,,8x<6pp6[4:2],,,,,,,,2x,,
{8}1,1,1xv6[8:1],,8pp2[8:1],8x,,,1,1,1xv6[8:1],,8pp2[8:1],,,,
3x-6-3[4:2]*-1<8-6-8>1-3[4:2],,A3f/E3/B2/E2/A1,,A6f/E7/B7/E8/A8,,A3f/E3/B2/E2/A1,,
{16}5x,6x,7x,8x,1x,2x,3x,4x,5x,6x,7x,8x,1x,,,,
B1hf[4:1],,,,
{32}8xb,D8f,7bx,D7f,6bx,D6f,5bx,D5f,
8xb,D8f,7bx,D7f,6bx,D6f,5bx,D5f,
8xb,D8f,7bx,D7f,6bx,D6f,5bx,D5f,
8xb,D8f,7bx,D7f,6bx,D6f,5bx,D5f,
8xb,D8f,7bx,D7f,6bx,D6f,5bx,D5f,
8xb,D8f,7bx,D7f,6bx,D6f,5bx,D5f,
8xb,D8,7bx,D7,6bx,D6,5bx,D5,
{16}8x,,6x,,8x,,6x,,8x,,6x,,8x,,,,,,,,8x,,6x,,8x,,6x,,8x,,,,
{8}2h[4:1]/4,,4h[4:1],,2,8,1,7,65,,27,,34,,27,,
2,2-6[8:1],,7,7-1[8:1],7,3-5[8:1],3,7,7-5[8:1],,2,2-4[8:1],,2,,
{8}7h[4:1]/5,,5h[4:1],,7,1,8,2,34,,27,,56,,27,,
||{8}2-4[8:1],2,5,6,7-5[8:1],7,4,3,2>5[8:1],,8-4[8:1],,1-5[8:1],,1,,7,7-3[8:1],,2,2-8[8:1],2,5-1[8:1],5,2,2>5[8:1],,6,6v3[8:1],,6,,{8}2,2,4,3,5,5,4,6,7h[8:1]/5,,7h[8:1]/5,,1-4[8:1],,1,,
{16}5x,6x,7x,,4x,3x,2x,,6x,7x,8x,,3x,2x,1x,,
{4}A7/D8/A8/E8/B7/E7/D7/A6,A3/D4/A4/E4/B3/E3/D3/A2,8b/6b,
{16}1x,2x,3x,4x,
{8}5hx[8:1],,2h[8:1]/8h[8:1],,4h[8:1],,2-4[8:1]/5,,2-8[8:1]/5,,2-6[8:1]/6,,2/7,,
7,7h[8:5],,,8,8,1h[4:2],,7,7,
{16}7,6,5,4,1,2,3,4,{32}B8,B7,B6,,,,,,{4}3bx,
{4}1xh[8:1]/2xv3[8:1],4x,1xh[8:1]/2xv3[8:1],4x,1xh[8:1]/2xv3[8:1],4x,1x/2x,8<4[4:1],
{4}4xV68[4:1],8xV64[4:1],4x<8[4:1],1>4[8:1],1<6[8:1],1w5[8:1],,8<4[4:1],
4>8[4:1],8<8[4:2],Cf,8<8[4:2],Cf,8<4[4:1],4>8[4:1],8<4[4:1],
{16}4xb>8[4:1],3x>7[4:1],2x<6[4:1],1x<4[16:5],,,,,4xb>8[4:1],3x>7[4:1],2x<6[4:1],1x<4[16:5],,,,,
{4}4>8[4:1],8<4[4:1],4,1>5[4:1],
5<1[4:1],1>1[4:2],Cf,1>1[4:2],Cf,1>5[4:1],5<1[4:1],1>5[4:1],
{16}5xb<1[4:1],6x<2[4:1],7x>3[4:1],8x>5[16:5],,,,,5xb,6x,7x,8x,,,,,
{4}A7/D7/A6/E7f/E8/E6,B8/B1/Cf/B5/B4,A2/D3/A3/E3f/E2/E4,,
{16}8b/1b,,3b/6b,,,,3/4,,2bx,,1bx,,8bx,,7bx,,5x/6x,,4x,,7bx/3bx,,3bx/7bx,,5bx/4bx,,6x,5bx,6x,,7bx,,
18,,2b,,2b,,18,,7b,,7b,,18,,36,,2b,5,3,4b,2,5,3b,4,
2xb,1x,8x,7x,,,1x,1x,1xb,,3b/7b,,,,8b,,2b/6b,,,,
{32}8bx,7x,6x,5x,4xh[32:4],,,,A2f,E3,E4,,E8f,E7,A6,,B1f,C,B5,,,,,,
{16}6bx,5x,6bx,5x,6bx,,3x,4x,3bx,,3bx,,2x,,2x,,1,,1,,8,,8,,
{32}1bx,2,3,4,5,6,7,8,1bx,2,3,4,5,6,7,8,1bx,2,3,4,5,6,7,8,{4}1bx-5[8:1],
{8}7<4[8:1],7,1-5[8:1],1,7<4[8:1],7,1-5[8:1],1,8-4[8:1],,2-6[8:1],,,,,,
{4}3-8b[8:1]*-6[8:1],3,3w7b[8:1],3,
{16}2,3,4,5,8,7,6,5,{32}B8,B7,B6,,,,,,{4}3bx,
2x>6>2[4:2],6,1,7h[4:1],
{8}1-5[8:1],,7-3[8:1],,,1xh[8:3],,,
3x-6[8:1],,2x-7[8:1],,6x-3[8:1],,1x-6[8:1],,8x-3-5-7b[4:1],,,,D7f,,,,
{8}6h[16:1],5h[16:1],7h[16:1],4,6h[16:1],5h[16:1],7h[16:1],4,{16}7,,7,,74,,7,,7h[4:1]/4,,,,,,,,
{8}71,28,71,28,71,28,71,28,7x/1x,2x/8x,7x/1x,2x/8x,7x/1x,,A2/E3/A6/E6,,
{8}6bh[16:1],5h[16:1],7h[16:1],4,6bh[16:1],5h[16:1],7h[16:1],4,{16}7,,7,,74,,7,,7h[4:1]/4,,,,,,,,
{16}1,2,8,7,1,2,8,7,1,2,8,7,1,2,8,7,1xb,2x,8xb,7x,1xb,2x,8xb,7x,1xb,2x,8xb,7x,1xb-4b[8:1],,,,
{8}1bx-6b[8:1],5bx,1bx,5bx,1bx,7bx,3bx,5bx,{32}2bx,1bx,8bx,7bx,6bx,5bx,4bx,3bx,
{8}2bxv5b[8:1]/8bxv5b[8:1],,2bx/8bx/Cbf,,,
1bx/E7bf,1bx/B7bf,1bx/B8bf,1bx/B1bf,1bx/B2bf,1bx/E3bf,1bx/B3bf,1bx/B4bf,1bx/D5bf,
1bxw5b[8:1],,Cbf,,8bxw4b[8:1],,Cbf,,
{24}2bx-6b[8:1],3bx,4bx,7bx-3b[8:1],6bx,5bx,,,,,,,{8}1bx-5b[8:1],8bx-4b[8:1],,,
3bx,2bx,1bx,8bx,7bxv5b[8:1],,7bx,,1bx-3b[12:1],1bx,7bx-5b[12:1],7bx,1bx-3b[12:1],1bx,7bx,7bx,
{16}4bx,3bx,2bx,1bx,7bx,6bx,5bx,4bx,2bx<7b[8:1]*v4b[8:1],,,,A4/A8/B8/Cf,,,,,,,,
{16}6x>5v4[4:2],,,,,,,,,,,2,,2,,,{24}5,,4,,5,,,,,,,,,7h[24:8]/1h[24:8],,,,,,,,,,,
{32}E2,,E7,,,E3,,,E6,,,E5,,,,,E4,,,B6,,,,,B2,,,,,,,,46,,,,4h[32:3]/6h[32:3],,,,,,,,,,,,
46,,,,,,2x/8x,,3x/7x,,4x/6x,,,,,,4x/6x,,,,,,,,
{16}6x,5x,6x,5x,6x,5x,6x,,E7,,E6,,,,,,C,,,{32}7bx/1bx,6bx/2bx,{4}5bx/3bx,
{8}7-4[8:1],7,1-5[8:1],1,7-4[8:1],7,1-5[8:1],1,7-3<4-8[4:2],,E4/D4,,B2/B1,,,,
2-5[8:1],2,8-4[8:1],8,2-5[8:1],2,8-4[8:1],8,2-6>5-1[4:2],,D6/E6,,B7/B8,,,,
{16}3,5,3,5,2,,2,,6,4,6,4,7,,7,,
2,8,2,8,2,8,2,8,1,7,1,7,1,7,1,7,
1x,2x,3x,4x,2x,3x,4x,5x,3x,4x,5x,6x,4xv7[8:1],5x,6x,7x,8xh[4:2]/4bx,,,,,,,,{4}A6f/D6/D7/E6/E7/B6,,
{4}7>3[4:1],3<7[4:1],7>3[4:1],3<7[4:1],{8}7x>7[4:2],1x,3x,,7,,3x,5x,7x-4[8:1],,
{4}7/3-6[8:1],7-4[8:1]/3,7/3,{8}3,2,18,7,6-3[8:1]/2-5[8:1],,,,
{4}2<6[4:1],6>2[4:1],2<6[4:1],6>2[4:1],{8}2x<2[4:2],8x,6x,,2,,6x,4x,2xh[8:9],,
{16}8x,7x,6x,,8x,7x,6x,,8x,7x,6x,,8x,7x,6xh[8:3],,A3,B3,C,B7,A7f,,,,{4}1h[4:1],
{4}7V13[4:1],3V57[4:1],7V13[4:1],3V57[4:1],{8}7xV13V57[4:2],1x,3x,,7,,3x,5x,8xp2[4:1],,
{4}2xq8[4:1],8xp2[4:1],2xq8[4:1],8x,1x>4[8:1]*-5[8:1],1x,{4}6h[4:1],
{4}2V86[4:1],6V42[4:1],2V86[4:1],6V42[4:1],{8}2xV86V42[4:2],8x,6x,,2,,6x,4x,1x-6[8:1],,
5-1[8:1]/1,,2-5[8:1]/5,,7-4[8:1]/2,,{16}3bx,2x,1x,8x,7bx,6x,5x,4x,3bx/7bx,,,,{4}1xs5[4:3],,,,,
2-6[8:1]/8-4[8:1],8w4[8:1],,,
{8}2h[4:1]/4,,4h[4:1],,2,8,1,7,6-3[8:1]/5-3[8:1],,65,,6-3[8:1]/5-3[8:1],,65,,
2,2-6[8:1],,7,7-1[8:1],7,3-5[8:1],3,7,7-5[8:1],,2,2-4[8:1],,2,,
{8}7h[4:1]/5,,5h[4:1],,7,1,8,2,3-6[8:1]/4-6[8:1],,34,,3-6[8:1]/4-6[8:1],,34,,
{16}1x,2x,3x,4x,8x,7x,6x,5x,1x,2x,3x,4x,8x,7x,6x,5x,
{4}C/A4/B4/B8/A8,E7/E3/B6/B3,{8}E8,E2,E6,E4,
{8}7,,7-5[8:1],,2-4[8:1],,2,,7,,7-5[8:1],,2-4[8:1],,2,,
8-4[8:1],,1-3[8:1],,8-4[8:1],,1-3[8:1],,7-2-8-6[8:4],,7,,3,,2,,
{8}1,,1-3[8:1],,8-6[8:1],,8,,1,,1-3[8:1],,8-6[8:1],,8,,
2-7[8:1],,6-3[8:1],,2-7[8:1],,6-3[8:1],,1-3v4-6[8:4],,1,,6,,7,,
{8}8,,8-3[8:1],,1v7[8:1],,1,,8,,8-3[8:1],,1v7[8:1],,1,,
6>2[4:1],,2>6[4:1],,C,,8<6pp6[4:2],,E2,,E3,,E4,,E5,,
{8}1,,1v6[8:1],,8pp2[8:1],,8,,1,,1v6[8:1],,8pp2[8:1],,8,,
3xq6b[4:2],,3xq6[4:1],,,,,,
{24}7hx[4:14]/6xb,5xb,4xb,3xb,2xb,1xb,{4}8xbh[24:17],,,
{24}6x,5x,4x,3x,2x,1x,{4}8xh[24:17],,,
{24}6x,,4x,,2x,,{4}8xh[24:17],,,
{24}A6,,A4,,A2,,{4}A8,E7,B4f,
{4}7>3[4:1],3<7[4:1],7>3[4:1],3<7[4:1],{8}7x>7[4:2],1x,3x,,7,,3x,5x,8x-5[8:1],,
{4}8/3-6[8:1],8-5[8:1]/3,8/3,{8}3,2,18,7,6-3[8:1]/1-4[8:1],,,,
{4}2<6[4:1],6>2[4:1],2<6[4:1],6>2[4:1],{8}2x<2[4:2],8x,6x,,2,,6x,4x,1x,,
{32}1bx,2x/8x,3x/7x,,,,,,8x,,,,,,,,8bx,7x/1x,6x/2x,,,,,,{4}1q6[8:1],8p3[8:1],1b,1xh[4:1],
{4}7V13[4:1],3V57[4:1],7V13[4:1],3V57[4:1],{8}7xV13V57[4:2],1x,3x,,7,,3x,5x,8x<4[4:1],,
{4}4xV68[4:1],8xp2[4:1],2xq8[4:1],8x,1x>4[8:1]*-5[8:1],1x,{4}6h[4:1],
{4}2V86[4:1],6V42[4:1],2V86[4:1],6V42[4:1],{8}2xV86V42[4:2],8x,6x,,2,,6x,4x,1x-6[8:1],1x,
5-1[8:1],5,2-5[8:1],2,7-4[8:1],7,{16}3b,2,1,8,7b,6,5,4,3b/7b,,,,{4}1xs5[4:3],,,,,
2-6b[8:1]/8-4b[8:1],8w4[8:1],,2b/6b,
{16}2,4,2,4,3,5,3,5,4,6,4,6,5,7,5,7,
{4}5b-1[8:1],5bpp7[8:1]*qq3[8:1],5b/Cf,
E
