&title=OBLIVION ~Rockin' Night Style~
&artist=Nein
&first=0
&des=Sakurago
&lv_5=13+
&inote_5=(141.00)
{8},,,,,,,,
{8}E1`E3,,,,,,4,,
{8}E1`E7,,,,,,,,
{8}B2`B8,,4,,B3`B5,,6,,
{8}C/7p4[8:4],,,,,,,,
{8}E2`E7,,3,,E4`E1,,5,,
{8}Ch[8:6]/E8,,,,5,,6h[8:6],,
{24}E3,B2,B1,
E1,B8,B7,
E7,B6,B5,
E5,B4,B3,{8}E3,,E1,C,
{8}E5,,,,1h[8:1],5h[8:1],4h[8:1],8,
{8}2hb[8:6]/7b>6b[8:4],,,,,,,,
{8}3-8[8:1]/7-4[8:1],,3/7,,2/6,2/6,{16}1,8,4,5,
{8}6hb[8:7]/3b-7-1s5b[8:5],,,,,,,,
{8}4x/7x,4/7,2/5,2/5,{16}3,6,2,7,{8}1xqq6[8:4],,
{8}1/3,,3,,3,,3p8[8:4]/5,4,
{8}3/7,,7,,7p3[8:1]*<4[8:1],,7-1-6-2[8:4],,
{8}4/7,,4,,4-1[8:1]*-7[8:1],,4qq5<4b[8:6],,
{8}B7/B8/E8f,,,,,,,,
{16}2/7,,4,5,3,5,4,6,
3,4h[48:9],{24}1x,8,7,{8}6,3x/5x,
{16}6,4,5,4,7,5,
6,5,7,5h[48:9],{24}8x,1,2,
{16}3,,2x/5x,,
{16}3,5,4,5,2,4,
3,4,2,4h[48:9],{24}1x,8,7,
{16}6,,7x/4x,,
{16}5,5,3,3,7,7,1,1,
6-2[8:1],2,8,4,6`C,,,,
{16}1x,3x,,8,6,,2,5,
,3,7,4,5,2,6,3,
{16}7x,7x,,4/8,4/8,,2/6,2/6,
,8,3,6,1,4,5,7,
{16}1,1,8,2,5,5,4,6,3,3,4,2,7,7,8,6,
{16}2x,2,B6,4,
8x,8,B4,6,
4x,4,B8,2,
6x,6,B2,8,
{8}3b<3b[8:4]*>3b[8:4],,,,,,,,
{16}2/6,,8,1,2/7,,1,,
6,5,7,5,6,,1,,
{16}3/7-4[8:1],,2,2,7,,1,,
2/4-8[8:1],,3,3,4,,2,,
{16}1h[8:2]/7,,5,5,5,,8,,
6h[8:2]/3,,4,4,4,,1,,
{32}3h[8:4]/8x,7x,6x,5x,4x,,2x,1x,
8x,7x,6x,5x,4x,,2x,1x,{16}8xp4[8:1]*q4[8:1],,,,8x,,,,
{16}6/2,,4,5,6/3,,5,,
3,4,3,2,3,,5,,
{16}7/3-8[8:1],,4,5,3,,7,,
1/6v1[8:1],,7,5,6,,2,,
{16}3/8,,4,6,1,,5,3,
8,,4/5,,2/7>6[8:2],,6/3h[8:3],,
{16},,,,,,,,{8}1-5[8:1]/7-3[8:1],,1b/7b,,
{16}2x,4,2,4,2,4,2,4,
2,4,2,4,2x,6,2,6,
{16}4x,6,4,6,4,6,4x,8,
4,8,4,8,2x,8,2,8,
{16}2x,6,2,6,2,6,4x,6,
4,6,4,6,4x,8,4,8,
{16}2hx[128:1],6,6,4hx[128:1],8,8,2hx[128:1],4,
{32}E2,B2,B3,E4,E7,B6,B5,E5,
Cf,,,,,,,,
{16}7x,5,7,5,7,5,7,5,
7,5,7x,3,7,3,5x,3,
{16}5x,1,5,1,5,1,5,1,
7x,1,7,1,7x,3,7,3,
{16}5x,3,5,3,5,3,5,3,
5,3,5x,1,7x,3,5x,1,
{24}7x,6,5,4,3,2,
5x,6,7,8,1,2,
{32}8x,7x,6x,5x,4x,3x,2x,1x,
8x/Cf,,,,,,,,
{16}7x-4[8:1]/3,,8,8,2>5[8:1]/7,,1,,
2/6v1b[8:1]*p2b[8:1],,,,6,,,,
{16}7x-4[8:1]/3,,8,8,2-5[8:1]/7,,1,,
2/6p1b[8:1],,,,6/7<4[8:1],,,,
{8}7/2<7[8:1],,2/5>2[8:1],,5/8<5[8:1],,8/3>8[8:1]*-8[8:1],,
{8}3<6[8:1]*-6[8:1],,3,,{16}1,8,1,8,2b/7b,,,,
{16}1/6,,4,5,3,4,2,6,
1-5[8:1],,8,3,1<2[8:2],,,,
{16}1/6,,,,7-4[8:1]*-5[8:1],,,,
7-2[8:1]*-1[8:1],,,,7-3[8:1],,,,
{16}7,,,,4V61[16:3],4,3,5,4,,,,5p4[8:2],,7/2,,
{8}4>5[8:2]/5,,,,{16}1,1,6,6,3,3,8,8,
{16}4x,5,B1/E2,5,
3,5,B4/E4,5,
4,5,B1/E2,5,
3,5,B4/E4,5,
{16}3x,6,E1/B8,6,
4x,6,B4/E5,6,
3x,6,E1/B8,6,
4x,6,B4/E5,6,
{16}2x,7,B8/E8,7,
3,7,E6/B5,7,
2,7,B8/E8,7,
3,7,E6/B5,7,
{16}4x,8,B1/B2,8,5x,8,B5/B6,8,{16}1bxw5b[8:1],1bx,1bx,1bx,{8}1bx,,
{16}3/7,,4,5,3/6,,7,8,
1/6,,2,1,3/8,,5/4,,
{16}2/7<6-4[8:1],,3,3,7,,1,,{8}2-6[8:1]/3-8[8:1],,2x/3x,,
{16}2x/7x,,3,4,1,8,5,6,
{24}2bx,3,4,8bx,7,6,1bx,2,3,7bx-1-6-2-5-3b[8:5],6,5,
{8}4bx/Cf,,,,,,,,
{8}6V84[8:2]/3,,,{16}1x-3[8:1],1x,{8}1x-5[8:1],,,,
{32}2b/6b,3,4,5,6,7,8,1,
2,3,4,5,6,7,8,1,
2bx/6bx,5,4,3,2,1,8,7,
2/6,,,,,,,,
{8}3V15[8:2]/7,,,{16}8x-6[8:1],8x,{8}8x-4[8:1],,,,
{32}7b/3b,6,5,4,3,2,1,8,
7,6,5,4,3,2,1,8,
7bx/4bx,5,6,7,8,1,2,3,
4/6,,,,,,,,
{8}3/7-3[8:1],,,{16}2xV85[8:2],2x,{8}2hx[8:2],,,,
{32}3b/6b,4,5,6,7,8,1,2,
3,4,5,6,7,8,1,2,
6bx/3bx,5,4,3,2,1,8,7,
3/6,,,,,,,,
{8}1<6[8:2]/2,,6>3[8:2],,4,,1h[8:4],,
{8}E4,C,E8,{16}8x,4hx[16:5],{48}A7,D7,A6,D6,A5,D5,
,D4,A3,D3,A2,D2,{8}A1,,
{8}7b-1v4b[8:16]/3hb[8:18],,,,,,,,
{8},,,,,,,,
{8},,,,,,,,
{8},,,,,,,,
{8},,,,,,,,
