&title=SLS
&artist=ぱらどっと
&first=0.02
&des=NaOH
&clock_count=4
&lv_5=13+
&inote_5=(140),,,,,,,,
{4}6h[8:1],5h[8:1],4h[8:1],{8}2,2,3h[8:1],,4h[8:1],,5h[8:1],,7,7,
5h[8:1],,3h[8:1],,1h[8:1],,7,7,6h[8:1]/5h[8:1],,7h[8:1]/4h[8:1],,8-4[8:1]/4h[8:1],,
2h[16:1],2h[16:1],
37,3,38,3,1<5[8:1]/3,3,2h[16:1],2h[16:1],
16,6,26,6,3>8[8:1]/6,6,5h[16:1],5h[16:1],
{16}2,6,2,6,3,5,3,5,2,6,3,7,1s5[8:1],8,2,,
1x/5x-3[12:1]*-7[12:1],,,,5xs1b[8:1],,,,5x,,,,E7/E3/Cf,,,,
{8}
1x,8x-3[8:1]/2x,,8-5[8:1]/6,,8-4[8:1]/2,,86,
{16}7<4[8:1],,,4,,,1pp4[4:1],,,,6,,,,7,,
{8}8x,1x-6[8:1]/7x,,1-4[8:1]/3,,1-5[8:1]/7,,13,3V14>7b[4:2]*pp4>7b[4:2]
,,,,,,,,
1x,8xv3[8:1]/2,,8v5[8:1]/6,,8v3[8:1]/2,,86,
{16}5<8[8:1],,,2,,,1pp4[4:1],,,,7,,,,6,,
5pp5[4:1],,,2,,,3,,4-1[8:1],,,7,,,6,,
6,5,7,4,8,3,1,2,8,1,7,2,6,3,5,,
{8}3x,2x-4[12:1]/1x,3,1-5[8:1]/2,8,2-4[12:1]/1,3,12,
{16}6<1-5^4[4:1],,,1,,,3,,,,3-8[8:1],,2,,35,,
{8}6,7-5[12:1]/1,6,8-4[8:1]/7,1,7-5[12:1]/8,6,78,1>5p5b[4:2]*<5q5b[4:2],,,,,,,,
3x,2x-4[12:1]/1x,3,1-5[8:1]/2,8,2-6[12:1]/1,3,12,
{16}7^1-5^4[4:1],,,5,,,2,,,,2-5[8:1],,1,,28,,
7h[16:3],,,5h[16:3],,,6,,2h[16:3],,,4h[16:3],,,3,,
2,1,2,1,3,8,4,7,5,6,4,5,3-8-4[4:1],4,2,,
{8}
3b/4b,5,5<8[8:1],6,2-6[8:1]/5,1,2V48[4:1]/7,8,
8V62[4:1]/2,,2V48[4:1],,2-5-1-3b[16:5],,6-8-5[4:1],,
6b,4,4>1[8:1],3,8-4[8:1]/4,7,8<2[4:1],3,
2>8[4:1]/8,,8<2[4:1],,2-4-6-8b[4:1],,1-5-3[4:1],,
1b,7,8<5[8:1],7,3-8[8:1]/8,4,3-5[8:1]/6,
5-3[8:1],3-8[8:1],8-4[8:1],7<4[8:1],7^2[8:1],7-3b[8:1],,,,
2-5[8:1],6,2,7,{16}4,6,3,5,2,,4h[8:1],,3b,,2b/4b,,{12}1b,1b,1b,
1bs5[8:1],7h[24:1],8h[24:1],1h,,,
{16}
7-3[8:1],,3-7[8:1],,7,,2,,1,1,5,2,6qq5[4:1],,3,,
5<2[4:1],,,,2V85[4:1],,,,5V72b[4:1],,,,A3/B3,,,,
3-5[12:1],,4,,36,,7,7,3,,6,6,2-6-4p8b[4:2],,17,,
2/7h[16:1],,7h[16:1],,7h[16:1],,7h[16:1],,7-4[8:1]*-5[8:1],,,,7,,,,
2h[4:1],,E1,,6h[4:1],,E5,,2h[4:1],,E8,,6h[4:1],,B5,,
3h[4:1],,E1,,7h[4:1],,E5,,2h[4:1],,B4,,7h[8:1],,B5,,
3h[8:1]/4,,1,,4h[8:1]/5,,1,,5h[8:1]/6,,1,,5h[8:1]/7,,1,,
{12}3b/8h,2b/7h,1b/6h,{8}8b/5h,{8}8>3[8:1],4z8[4:1],,,,
{4}4xh[4:3],E6/D6,,E8/D8,8xh[4:3],E2/D2,,E4/D4,
1<4[4:2]/4q1[4:2],,,,4>8b[4:2]*<8b[4:2],,,,
{8}6,4h[16:1],5,3,{16}6,5,6,4,5,4,6,,3h[16:1],,4h[16:1],,5h[16:1],,6h[16:1],,
7h[16:1],,8h[16:1],,1-5-2-7-4-1[4:3],,,,6h[4:2],,,,,,,,,,,,6>6b[4:3],,,,
2h[4:2],,,,,,,,,,,,Cf,,,,
{8}3x/4x,2x,56,7,34,1,56,8,12,3,78,6,12,4,8-4[8:1]/7,5,
8-6[12:1],1-5[8:1],8-4[8:1],1,8,1,
{32}1x,2,3,4,5,6,7,8,{4}1xs5[8:1],7V53[8:1]*V53[8:1],1s5b[8:1],E1/Cf/E5,
{16}
2bx/6bx,,3,4,2,,6,6,5-2[8:1],,8-4[8:1]/7,,56,,8,,
2,,2,1,3,,7,7,8-3[8:1],,5-1[8:1]/6,,78,,5,,
4h[8:1],,6,5,7,,3,4,2-5[8:1],,8-4b[8:1],,2,,8,,3,,
2,6,3,5,4,6,2,4,3,7,5,6,1,,
7b/3b,,6,5,7,,3,3,4-7[8:1],,1-5[8:1]/2,,43,,1,,
6,,7,8,6,,2,2,1-6[8:1],,4-8[8:1]/3,,21,,4,,
5h[8:1],,3,4,2,,6,5,7-4[8:1],,1-5b[8:1],,7,,1,,6,,
7,3,6,4,5,3,7,5,6,2,4,3,8,,
1b/5b,,3,4,2,,7,7,1>4[8:1],,78,,1-5[8:1]/6,,5<8[8:1],,
12,,2,3,4,,3,4,2-5[8:1],1,,1,2-8[12:1],,7,,
2,,7,6,5-1[8:1],,2,2,5-7[12:1],,2-4b[12:1],,5,,2,,
8,,2,4,3,5,4,6,3,4,2,7,8,6,4,,
8b/4b,,6,5,7,,2,2,8<5[8:1],,21,,8-4[8:1]/3,,4>1[8:1],,
87,,7,6,5,,6,5,7-4[8:1],8,,8,7-1[12:1],,2,,
7,,2,3,4-8[8:1],,7,7,4-2[12:1],,7-5b[12:1],,4,,7,,
1,,7,5,6,4,5,3,6,5,7,2,1,3,5,,
6h[8:1],,4h[8:1],,7,5,6,4,8,3,7,2,6,1,5,,
3h[8:1],,5h[8:1],,2,4,3,5,1,6,2,7,3,8,4,,
{24}7x,6,5,3x,2,1,7x,6,5,3x,2,1,7-3b[8:1],6,5,3,2,1,7,,,,,,
{16}2,4,1,5,8>4[4:1],6,8,,E5,,E6,,E7,,E8,,
3h[8:1],,5h[8:1],,2,4,3,5,1,6,2,7,3,8,4,,
6h[8:1],,4h[8:1],,7,5,6,4,8,3,7,2,6,1,5,,
{24}2x,3,4,6x,7,8,2x,3,4,6x,7,8,2-6b[8:1],3,4,6,7,8,2,,,,,,
{16}7,5,8,4,1<5[4:1],3,1,,E5,,E4,,E3,,E2,,
{8}34,2,56,7,34,2,56,7,34,1,56,8,34,1,56,8,
12,3,78,6,12,3,78,6,12,4,78,5,12,4,78,5,
2/8h[8:1],4,1h[8:1]/7,5,2/8h[8:1],4,1h[8:1]/7,5,
2/8h[8:1],4,1h[8:1]/7,5,2/8h[8:1],4,1h[8:1]/7,5,
6/4h[8:1],8,5h[8:1]/3,1,6/4h[8:1],8,5h[8:1]/3,1,
6/4h[8:1],8,5h[8:1]/3,1,6/4h[8:1],7,1s5b[8:1]/8,,Cf,,
