&title=ヒッチコック
&artist=ヨルシカ
&first=0.02
&des=IMRIS
&lv_5=13+
&inote_5=(170)
{4},,,,,,,,
{8}5h[8:2],,,,3h[8:2],,{12},,3h[8:2],,,,4,,,2h[8:2]/4h[8:2],,,,,,
{8}3h[8:2],,,,5h[8:2],,{12},,6h[8:2],,,,5,,,6/4,,,,,,
{8}5h[8:2],,,,3h[8:2],,{12},,3h[8:2],,,,4,,,2h[8:2]/4h[8:2],,,,,,
{8}2h[8:2],,,,8h[8:2],,{12},,6h[8:2],,,,5,,,6/4,,,,,,
{8}7h[8:2],,,,4h[8:2],,{12},,3h[8:2],,,,4,,,2h[8:2]/4h[8:2],,,,,,
{8}3h[8:2],,,,5h[8:2],,{12},,6h[8:2],,,,5,,,6/4,,,,,,
{8}7h[8:2],,,,1h[8:2],,{12},,3h[8:2],,,,4,,,2h[8:2]/4h[8:2],,,,,,
{8}2h[8:2],,,,8h[8:2],,{12},,6h[8:2],,,,5,,,6/4,,,,,,
{8}2-4[8:1],,24,,7-5[8:1],,75,,2-4[8:1],,4q5[8:3]/2,,5-7[8:1],,,,
{8}8-6[8:1],,86,,1-3[8:1],,1/3pp2[8:3],,5<8[16:3],,,,1>4[8:1],,,,
{8}7-5[8:1],,75,,4-2[8:1],,24,,8-6[8:1],,86,,3-1[8:1],,31,,
{12}7h[4:1],,,5,6,5,7h[4:1],,,5,,6,,,6,5,,5,7-4[8:1],,,4,,,
{12}1,,4,3,,5b/6b,,,1b/8b,,,2b/4bpp7[16:8],,,,,,,4-1[8:1],,,,,,
{8}8b<5[8:1],,48,,1v4[16:2],,4p7[16:3]/1,,6v1[8:1],,,,2>5[8:1],,8,,
{8}6-1[8:1],,16,,3-6[8:1],,6v4[16:2]/3,,8<5[8:1],,,,3>8[8:1],,36,,
{12}4<8[16:3],,,84,,,{12}5>1[16:3],,,{8}15,,4-8[16:2],,84,,1-5[16:2],,18,,
{12}7qq8[8:3],,,4>1[8:1],,,,,,8bz4[12:4]/7b,,6b/2bq6[8:1],,,,,,,
{12}7h[6:1],,8,6,,,
{8}1>4[8:1],,14,,1<6[16:2],,1pp8[16:6]/5,,1,,,,
{12}4h[6:1],,1,6,,,
{8}5>2[8:1],,58,,5<1[8:2],,1qq2[8:3]/5,,2h[4:1],,,,
{12}4,,4,8h[8:2],,,2,,2,4,,4,5h[8:2],,,7,,7,5,,5,4,,4,2h[12:2],,5,3,6,4,
{8}8b-4[8:9],,,,,,,,,,,,{12},,2,4-8[8:1],,,
{8}46,,5<8[8:1],,52,,5>2[8:1],,{12}58,,,6h[6:1],,1,,,2,4-8[8:1],,,
{8}46,,5<8[8:1],,52,,3>7[16:3],,6<2[16:3]/3,,4,,{12}5,,7,5-1[8:1],,,
{8}35,,4>1[8:1],,47,,4<7[8:1],,{12}41,,,3h[6:1],,8,,,7,5,,,
{12}13,,2,4,,3,6,,5,7,,8b/6b,,,4,5,,1,4,2,5,3-5[8:1],,,
{8}6h[8:2],,,,3h[8:2],,{12},,3,,,3,4,,,2h[8:2]/4h[8:2],,,,,,
{8}3h[8:2],,,,5h[8:2],,{12},,6,,,6,5,,,6/4h[4:1],,,,,,
{8}5h[8:2],,,,3h[8:2],,{12},,3,,,3,4,,,2h[8:2]/4h[8:2],,,,,,
{8}2h[8:2],,,,8h[8:2],,{12},,8,,,1,8,,2,5b,,1,7,4,6,
{8}3-1[8:1],,1-4[8:1],,4,,{12}6,,6,5h[8:2],,,8,7,6,3h[8:2],,,5,6,7,
{8}4h[6:1],,3h[6:1]/1h[6:1],,2h[6:1]/8h[6:1],,1h[6:1]/6h[6:1],,
{8}5<8[8:1]/8>3[8:1],,,,4-1[8:1],,,,
{12}6,8,7,1,8,2,4,3,5,4,7,5,
{8}8<5[8:1],,4,,{12}1-3[12:1],,4-1[12:1],,,,,,8/4q1[8:1],,,,6-3[8:1],,,2-5[8:1],,,
{8}4-8[8:1],,8,,3<6[8:1]/6>3[8:1],,,,
{12}2h[8:2],,,3,,4/1-4[8:1],,,,8,,,6h[8:2],,,5,,7/4h[8:2],,,5,3,,,
{12}4h[8:2],,,3,,1/5-8[8:1],,,,2,,,
{12}3h[12:2],,4,5,6,7,81,2,3,46,,,
{8}8<5[8:1],,85,,4-8[8:1],,42,,1<6[8:1],,1/6,,7-4[8:1]/5-1[8:1],,,,
{12}2h[4:1],,,4,3,4,2h[4:1],,,4,,34,,,3,4,,4,2>5[8:1],,,52,,,
{12}8h[6:1],,5,6,,2b/4b,,,1b/8b,,,2bv5[8:1]/7b-4[8:1],,,,,,,5-8[8:1],,,,,,
{8}1b-5[8:1],,51,,7v4[16:2],,5q2[16:3]/7,,3>8[8:1],,,,7<4[8:1],,71,,
{8}3-8[8:1],,83,,6-3[8:1],,3v5[16:2]/6,,1>4[8:1],,,,6-1[8:1],,63,,
{12}5>1[16:3],,5,1,,,{12}4<8[16:3],,4,{12}8,,,5p1[16:2],,5,{8}1,,{12}8p4[16:2],,1,{8}8,,
{12}2pp1[8:3],,,5<8[8:1],,,,,,1bs5[12:4]/2b,,3b/7bp3[8:1],,,,,,,
{12}2h[6:1],,1,3,,,
{8}8<5[8:1],,85,,8>3[16:2],,8qq1[16:6]/4,,8q4[8:1],,,,
{12}5h[6:1],,8,3,,,
{8}4<7[8:1],,41,,4>8[8:2],,8s4[8:2]/4,,5-7[8:1],,,,
{12}5,,5,8,,8,2,,2,4,,4,5h[8:2],,,7,,7,5,,5,4,,4,2h[12:2],,4,3,5,4,
{4}6-8[8:1],,5-7[8:1],,4-6[8:1],,3-5[8:1],,2-8[8:1],,3-1[8:1],,
{12}4-2[8:1],,5,4,,,6h[6:1],,5,7,4,6,
{12}3-1[8:1],,3,1,,,4-2[8:1],,4,2,,,5-3[8:1],,,3,,,6-4[8:1],,6,4,,,
{12}7-1[8:1],,,1,,,2-6[8:1],,,6,,,8,7,6,1,8,7,2,1,8,3,2,1,
{12}4-8[8:1],,,1,,3<6[8:1],,,3,8,,,
{12}1-5[8:1],,,4,,2<7[8:1],,,2,5,,,
{12}4-8[8:1]/1,,3,,,5,7-5[8:1],,,74,,,
{12}4-2[8:1]/2,,3,,,4pp6[16:3]*qq2[16:3],1,,,,,,
{12}2-5[8:1],,,6,,8>3[8:1],,,8,4,,,
{12}1-6[8:1],,,6,,8>3[8:1],,,8,4,,,
{12}8-4[8:1]/5,,6,,,7,5-1[8:1],,6,5,,7b,,,1,4,2,5,3,6,4,7,3,8,
{8}2-4[8:1],,4,,{12}7-5[8:1],,7,5,,,
{8}2-4[8:1],,4,,{12}7-5[8:1],,7,5,,,
{8}3qq4[8:12],,7,,8h[12:3],,,,7h[6:1],,6h[6:1],,7h[6:1],,8h[6:1],,
{8}7<5[8:1],,5,,{12}2>4[8:1],,2,4,,,
{8}7<5[8:1],,5,,{12}2>4[8:1],,2,4,,,8b-4[8:10],,,,,,,,,,,,,,,,,,,,,,,,
{2}3<6[8:4]/5h[1:3],,7-4[8:4],,2<7[8:4],,6-1[8:4],,
{2}7p2[8:4]/4h[1:2],,2p5[8:4],,5pp5[8:3]*qq4[8:3],{12},,,1b/8b,,7b/4b,
{12},,2,6,4,5,2,4,3,8,4,6,
{12}1b-5[8:1],,5,1,,6,2-4[8:1],,8,2qq7[8:3],,7,
{12}2,,,4,,,6h[6:1],,1,7,,,
{12}8-4[8:1],,4,8,,3,7-5[8:1],,1,7qq8[8:3]*<1[8:3],,2,
{4},,18,6-8[8:1]/5-1[8:1],5b/6b,4-1[8:1]/5-8[8:1],4b/5b,3-1[8:1]/4-8[8:1],3b/4b,
{4}3>5[16:5]/6<4[16:5],3b/6b,,
{12}1bq5[8:1],,5,1,,7,2>4[8:1],,4,2,,8,
{12}5-8[8:1]*-2[8:1],,,5,,,1>4[8:1]/7<4[8:1],,,17,,,
{12}8<5[8:1],,5,8,,2,4q8[8:1],,1,4,,3,
{12}1-4[8:1]*-6[8:1],,,1,,,3>8[8:1]/5<8[8:1],,,35,,,
{12}1-7[8:1],,6,1,,5,8-2[8:1],,4,8,,5,
{12}1<6[8:1],,6,1,,4,8>3[8:1],,3,8,,6,
{8}4>5[8:3],,1p4[8:1],,,,{12}8b/1b,,2b/5b,
{12},,7,2,4,3,7,5,6,{24}3,2,1,8,7,6,
{12}1b-3[8:1],,8-4[8:1],1,,8,2-6[8:1],,5-8[8:1],2,,5,
{12}4-1[8:1],,7-3[8:1],4,,7,1-5[8:1],,6-1[8:1],1,,6,
{12}3-1[8:1],,8-6[8:1],3,,8,3-6[8:1],,8-4[8:1],3,,8<1[12:4],
{8}2h[8:2],,,,4w8[8:1],,4,,
{12}1h[6:1],,4,2>6[16:3],,2,5-8[8:1]*-7[8:1],,,,,,
{12}1h[6:1],,4,2>6[16:3],,2,5-2[8:1]*-1[8:1],,,,,,
{12}3/8-4[8:1],,7,8,,,6/1-5[8:1],,2,1,,3qq8[8:3],,,3,5,,,7h[12:3],,1,8-4[8:1],2,6,
{8}4b,,,,,,1-5[8:1],,5b,,,,8-4[8:1],,4qq1[8:8]*pp8[8:8],,,,,,,,,,
{12},,7,5,,1,7,4,5,2-6[8:1],,,2b/6b,,
