&title=The Sacred Story
&artist=VILA
&first=0
&des=jianouo
&lv_5=14
&inote_5=(158)
{8},,,,,,,,
{16}5h[8:3]/3,,,,4,,4,,
{8},35,,7p4[8:4],7,,,,,,,,
{16}4h[8:3]/6,,,,5,,5,,
{8},46,,2q5[8:4],2,,,,,,,,
{16}8h[8:3]/2,,,,1,,1,,
{8},82,,6q1[8:4],6,,,,,,,,
{16}1h[8:3]/7,,,,8,,8,,
{8},17,,3,3v6[8:1],,5s1b[32:5],,5xh[16:2],,
{16}4x,2x,4x,2x,4bx,,
{16}3,4,3,,5,4,5,,3,4,2,,4,3,5,,4,5,4,,6,5,6,,5,6,4,,6,5,7b,,2,1,2,,8,1,8,,2,1,3,,1,2,8,,1,8,1,,7,8,7,,8,7,1,,7,8,6b,,3,4,2h[8:1],,5,4,6h[8:1],,4,5,3h[8:1],,6,5,7h[8:1],,1,8,2h[8:1],,8,1,7h[8:1],,1,8,1h[8:1],,8,1,7b,1,8,1,8,1,8,1,6b,1,8,1,8,1,8,1,5b,2,5,2,7,3,7,3,
{24}8,1,2,3,4,5,1,2,3,4,5,6,
{16}8b-2[32:3],,,,
{8}3-7[8:1]/8,,3/6-4[32:3],,16,,
{16}1-3[32:3],,8,,5-7[32:3],,4,,8-4[8:1],,8,,4,,,,5x-3[32:3],,,,2-6[8:1]/5,,,,7-1[32:3]/2,,,,4/7,,,,
{12}3,3,4,
{16}2-6[8:1]*-5[8:1],,,,2,,,,
{8}7,8,2h[4:1],3,6h[4:1],5,1h[4:1],3,4>7[32:8],,4/7q5[16:3],,5,6q8[16:5],6,,1,2,
{24}3x,,3,,3,,1x,,1,,1,,
{12}8x,8,8,6x,6,6,
{16}3,4,3,4,2,5,2,5,
{24}E3,B3,B4,
{16}8,,
{24}E7,B6,B5,
{16}1,,{16}2b-8[32:3]/4x,,,,
{8}7-3[8:1]/2,,7/4-6[32:3],,48,,
{16}8-6[32:3],,1,,4-2[32:3],,5,,1-5[8:1],,1,,5,,,,6x-4[32:3],,,,3-7[8:1]/6,,,,8-2[32:3]/3,,,,5/8,,,,
{12}6,6,5,
{16}7-3[8:1]*-4[8:1],,,,7,,,,
{8}2,1,7h[4:1],6,3h[4:1],4,8h[4:1],6,5<2[32:8],,5/2p4[16:3],,4,3p1[16:5],3,,8,7,6-4[8:1],7,2-5[8:1],1,7-3[8:1],8,1h[4:1],,2,4,6<1[8:1]/2>5[8:1],,2/6,,3-8[8:1]/7-4[8:1],8,3b/7b,,26,34,,37,5w1b[52.666#24:1]/6,,,,,,5b`Cf,,
{16}2x,3,4,5,1,8,7,6,1,2,3,4,6,5,6,5,7,4,7,4,E1,E2,E3,E4,8x-4[8:1],1,2,3,4x,,,,
7x,6,5,4,8,1,2,3,8,7,6,5,3,4,3,4,2,5,2,5,E1,E8,E7,E6,1x-5[8:1],8,7,6,5x,,,,
3x,2,1,8,4,5,6,7,4,3,2,1,7,8,7,8,6,1,6,1,5h[8:1],,3,3,4h[8:1],,2,2,1x,,,,
6x,7,8,1,5,4,3,2,5,6,7,8,2,1,2,1,3,8,3,8,4h[8:1],,6,6,5h[8:1],,7,7,8bx<5[8:1],,,,3,2,1,8,E3,E2,E1,E8,2x,3,4,5,7,8,7,8,6-4[8:1],,1,1,6<1[8:1],,,,6b/2b,,,,3b/4b>1[8:1],,,,7,6,5,4,E7,E6,E5,E4,6x,7,8,1,3,4,3,4,2-8[8:1],,5,5,2>5[8:1],,,,2b/6b,,,,7bh[4:1]/8b,,,,8,6,1,5,2,4,3,1,4,8,5,7,8,6,5,6,1,5,4,5,2,4,3,4,1b-5[8:1],,,,1b/8b,,6,6,5x,7,4,8,3,1,2,4,1,5,8,6,5,7,8,7,4,8,1,8,3,1,2,1,4b-8[8:1],,,,2b/4b,,1,1,7bh[8:1],,3,3,5bh[8:1],,2,2,4bh[8:1],,1,1,8b,2,4,3,7b,1,6,5,8b,1,8,1,8,1,8,1,2b/7bp4[8:4],,,,
{8}2,,2,,2,,2/4<8[4:1],,8>4[4:1],,4-8[32:5],,8,,1pp5[8:4]/7x,,6,6,,,7,,7,,7/2p4[4:1],,4>8[4:1],,7,,7>5[16:7],,6,,6,,6<1[4:1],,1>4[4:1],,4q6[8:3],,2x,,1,,
{16}3,7,3,7,2,6,2,6,1,5,1,5,8,4,8,4,7,3,7,3,7h[8:1],,
5,5,
{24}8,1,2,3,4,5,6/8-4[8:1],1,2,3,4,5,
{8}6/8b`Cf,,
{16}25,,3,4,3,,5,4,5,,3,4,1>3[8:1],,5,5,1-4[8:1],,6,6,1-5[8:1],,8,8,1b,,,,
{12}3b/7b<4[8:1],,,
{8}2x,2x,
{12}12,,
{12}2-4[12:1],4-8[8:1],2,,8,,7-5[12:1],5x-3[12:1],7,,3x,,1,8x<5[8:1]*>3[8:1],1,,
{16}8b-4[8:1],,,,8,,,,2/6-1[8:1],,,,2>5[8:1]/6,,3,,8-4[8:1]/2,,7,,3>8[8:1]/8,,2,,35,,,,26,,35,,4,6,4,6,5,7,5,7,8,6,8,6,1,7,1,7,2,8,2,8,3h[8:1],,1,1,
{24}E3,E4,E5,
{16}7h[8:1],,5x,6x,5x,6x,4bx-8[8:1],,,,4,,,,7,8,6,1,5,2,4,3,6,5,7,5,6,5,8,5,6,5,1,5,6,5,
{24}E7,E8,E1,
{16}2<7[8:1],,3,,4,,5,,6>3[8:1],,7,,8,,1,,2,4,2,5,2,6,2,7,3,4,3,5,3,6,3,7,3,4,2,4,3,4,1,4,3,4,8,4,3,4,7,4,3<6[8:1],,2,1,3b,,,,71,,24,,56,,37,,1-5[8:1]/8-2[12:1],,,,1<6[8:1]*>4[8:1]/8,,,,1x,,,,5,,4,,6/3-1[12:1],,4,4,3b,,8,,8b-4[8:1],,6,6,8b,,5b,,7b,3,5,3,1,3,5,3,7,3,5,3,1,3,5,3,8,2,4,2,6,2,4,2,8,2,4,3,6,5,7,1,8h[8:1],,
{24}5,4,3,2h[8:1],,,4,5,6,7h[8:1],,,4,3,2,1h[8:1],,,
{16}8,,7,5,6,4,5,3,4,2,
{16}1x-5[8:1],,,8,1,,6,,6>3[48:6]/4,,,,2,,
{24}2,1,8,
{16}7,,5,,46,,3,,{16}2h[16:3],,,8h[16:3],,,
{12}5,46,46,
{16},3x/7x-3[8:1],,,
{16}1-5[8:1]*-6[8:1],,,,1x,,,,3,4,2,5,1,6,8,7,5,6,4,7,3,8,
{24}E3,E2,E1,
{16}7,,
{24}E7,E6,E5,
{16}2,,2/4x,,57,,1b>8[8:13]/8b,,
{8},,,,,,,,,,,,,,,E1,E2,E3,E4,E8,E7,E6,E5,1h[4:1],,8,8h[4:1],,3,4,5,6/4>5[8:13],,,,,,,,E4,,,E3,,,E2,,1xpp8[8:6],,,,,,,,E7/B7,,E5/B4,,E3/B2,,1x-5[8:1]/8x,,5bx,,6,4/7qq3[8:6],,,,,2h[4:1],,,1h[4:1],,,8-4[8:1],,4bx,,,2xpp6[8:6],,,6,,7h[4:1],,,8h[4:1],,,1-5[8:1],,5bx,,6,4/7pp4[8:6],3xh[4:1],,,,2xh[4:1],,,,1xh[4:1],,8,,2pp8[8:7]/7qq1[8:7],,,,,,,,,,,,,48,37,26,1b-4[8:1]/5b,,6,7-4[8:1],,2,1>4[8:1],,1x,,6,7>2[8:1],,2,3-8[8:1],,3x/5,,6,7<4[8:1],,,1x>4[4:1],,4<7[4:1],,7>2[4:1],,2,,8x,,4b/5b-8[8:11],,,,1xh[8:8],,,,,,,,,,2,3,4qq8[8:5]/5,,,
{24}7x,6x,5xh[24:28],
{8},,,,,,,,,1,62,73,8b-5[8:1]/4b,,3,2-5[8:1],,7,8<5[8:1],,8x,,3,2<7[8:1],,7,6-1[8:1],,6x/4,,3,2>5[8:1],,,8x<5[4:1],,5>2[4:1],,2<7[4:1],,7,,1x,,5b/4b-1[8:11],,,,8xh[8:8],,,,,,,,,,7,6,5pp1[8:5]/4h[4:1],,,,,,,
{16},
{24}2x,3x,4xh[48:53],
{8},,
{16},,,
{8}8xh[8:5],,,,,,,,,,,
{16},3,4,4,2,6,5,6,4,4,
{32}E6,B6,B7,E8,
{16}1xh[8:1],,8x,1x,8x,1x,7b-5[12:1],,1,1,7,,2,,4-8[8:1],,
{16}1,1,
{16}4,,,,2-4[12:1]/6,,8,8,2,,7,,5-1[8:1],,
{16}8,8,
{16}5,,,,
6-8[12:1]/2,,4,4,6,,3,,1-5[8:1],,,,2-4[12:1]/1,,3,,5-1[8:1]/2,,6,,7-3[8:1]/5,,8,,1-5[8:1]/7,,2,,3>4[16:5]/1,,,,3,,,,1,8,7,6,3,2,1,8,6h[4:1],,,,5-1[8:1],,6,6,5,,7,,2-4[12:1],,8,8,2,,7,,5b,6,4,7,3,8,2,1,4b,5,3,6,2,7,1,8,3b,4,3,4,2,5,2,5,
{24}E2,E1,A8,
{16}6,,
{24}E6,E5,A4,
{16}2,,1b-3[12:1],,7,7,1,,6,,4-8[8:1],,
{16}7,7,
{16}4,,,,7-5[12:1]/3,,1,1,7,,2,,4-8[8:1],,
{16}1,1,
{16}4,,,,
3-1[8:1]/7,,5,5,3,,6,,8-4[8:1],,,,7-5[12:1]/8,,6,,4-8[8:1]/7,,3,,2-6[8:1]/4,,1,,8-4[8:1]/2,,7,,6<5[16:5]/8,,,,6,,,,8,1,2,3,6,7,8,1,3h[4:1],,,,4-8[8:1],,3,3,4,,2,,7-5[12:1],,1,1,7,,2,,4b,3,5,2,6,1,7,8,5b,4,6,3,7,2,8,1,6b,5,6,5,7b,4,5,4,8b,3,4,3,1bh[8:1],,2,2,8b<6[8:1],,4,4,8,,3,,5-1[8:1],,2,2,5,,3,,8-4[8:1],,4<3[16:5],,8,,3,,,,4,,5h[4:1],,,,8-4[8:1],,7,,6-2[8:1]/8,,5,,4-8[8:1]/6,,3,,4/2qq6[8:3]*q5[8:3],,,,2x,,,,,,,,,,7,,5,,4,,2-5[8:1],,5-2[8:1],,2<4[8:2],,8,,,,,,8x,,,,7-4[8:1],,4-7[8:1],,7>5[8:2],,1x,,,,,,1xh[4:1],,,,
{24}E7,E6,A5,
{16}3,4,3,4,3,4,
{24}E3,E2,A1,
{16}7,8,7,8,7,8,6,,6,,4,,4,,2,,18,,18,,45,,2b/7b,,,,
{8}3h[4:1],,5h[4:1],,1h[4:1],,8h[4:1],,3,2h[8:3],,,4,26,2/6h[4:1],,4h[4:1],,2h[4:1],,8pp3[8:4]*qq5[8:4],,8x,,,,,7,5,4,6/2h[4:1],,8,6h[8:3]/4,,,5-8[8:1],,2x,,1,3h[8:3],,,4-1[8:1],6,8x/4,,7,5h[8:3],,,2>5[8:1],,1-5[8:1],,8-4[8:1],,7<4[8:1],,1>6[8:2],,,,7bpp3[8:8]*p4[8:8],,,,,,,,,,,,,,
{16}A1,B8,E7/E3,B4,A5f,
