&title=しあわせえぼりゅ~しょん♡
&artist=石井あみ & 後本萌葉
&first=0.74
&des=bbben
&lv_5=12
&inote_1=(132)
{4}1,1,1,1,1,1,1,1,1,1,1,1,1,1,1,1,1,1,1,1,1,1,1,1,1,1,1,1,1,1,1,1,1,1,1,1,1,1,1,1,1,1,1,1,1,1,1,1,1,1,1,1,1,1,1,1,1,1,1,1,1,1,1,1,1,1,1,1,1,1,1,1,1,1,1,1,1,1,1,1,1,1,1,1,1,1,1,1,1,1,1,1,1,1,1,1,1,1,1,1,1,1,1,1,1,1,1,1,1,1,1,1,1,1,1,1,1,1,1,1,1,1,1,1,1,1,1,1,1,1,1,1,
&inote_5=(132)
{8}
Chf[4:3],,,,,,,,
7x-3[8:1]/3x-8[8:1],,,,,,,,
7xv2[8:1]/2xq7[8:1],,,,,,,,
5<1[8:1],,,,4>8[8:1],,,,
1x-6[8:1]/8x-3[8:1],,,,,,,,
{16}
2h[4:2],,,4,,,4,,
7h[4:2],,,5,,,5,,
1h[4:2],,,3,,,3,,
8h[4:2],,,6,,,6,,
2-6[8:1],,,7,,,7,,
7-3[8:1],,,2,,,2,,
1>4[8:1],,,7,,,7,,
8w4[8:1],,,8bx,,,,,
2xh[16:3]/5xh[16:3],,,,,,25,,3-7[8:1]/4-8[8:1],,,,34,,,,
7xh[16:3]/4xh[16:3],,,,,,74,,6-2[8:1]/5-1[8:1],,,,65,,,,
2xh[16:3]/5xh[16:3],,,,,,25,,7<4[8:1]/8>3[8:1],,,,78,,,,
5x<8[4:1]/4x>1[4:1],,,,,,,,,,,,,,,,
{8}
4h[4:1]/8,,7,,5h[4:1]/1,,2,,
4h[4:1]/8,,7,,5h[4:1]/1,,2,,
5-8b[8:1]/4-1b[8:1],,,,3b/8b,,,,
7>2[4:1],,2<7[4:1],,,,,,
2qq6[8:2],,6,,4-8[8:1],,,,
7pp3[8:2],,3,,5-1[8:1],,,,
2pp5[8:2]/8qq5[8:2],,,,,,Cf,,
4-1[8:1],,5-8[8:1],,4-1[8:1],,5b,,
87,,12,,87,,12,,16,,83,,16,,83,,
56,,56,,34,,34,,
5/6v4[8:1],,3,,5/6q4[8:1],,3,,
3x/4x,3,65,6,34,3,65,6,
24,2,75,7,24,2,75,7,
1>7[4:2]/8<2[4:2],,,,,,,,4b/8b,,,,,,,,
12,,87,,34,,56,,
2pp4[8:1],,8qq6[8:1],,1pp3[8:1],,
5w1[8:1],,5b,,
2,2,4,4,5,5,7,8,1,2,5s1[8:1]/4z8[8:1],,,,
12,,87,,34,,34,,
7qq3[4:1],,3-7[8:1],,,,
4w8[8:1],,4b,,
7,7,5,5,4,4,2,1,8,7,4z8[8:1]/5s1[8:1],,,,
12,12,87,87,34,34,56,56,
2pp4[8:1],2,8qq6[8:1],8,1pp3[8:1],1,
5w1[8:1],,5b,,
2,4,3,5,4,6,7,8,1,2,3-7[8:1]/6-2[8:1],,,,
{16}
3,4,3,6,5,6,3p7[8:1]*>7[8:1],,,,,,,,,,
6,5,6,3,4,3,5qq5[8:1]*pp5[8:1],,,,,,,,,,
{8}
7x-3[8:1]/3x-8[8:1],73,7b/3b,,,,,,
7xv2[8:1]/2xq7[8:1],72,7b/2b,,,,,,
{16}
5<1[8:1],,,2,,,3,,4>8[8:1],,,7,,,6,,
5qq1[4:2]*pp1[4:2],
,,,,,,,,,,,,,,,,,
1x/8x,,4x/5x,,2x/6x,3x/7x,,4x/5x,,1x/8x,2bx/7bx,
