&title=Viola Illyria
&artist=Kolaa feat.GUMI
&first=0
&des=S. as Sh4ke3pe4rE
&clock_count=4
&lv_5=14
&inote_5=(162)
{1},,
{8}5q4<5-7>2-4[1:2],,,,,,,,
{8},,,,,,,,
{8}7,,6,,5>5[4:3],,,,
{8},,,{16}D2,A2,D3,,,,{8}3,,
{8}4-1V37-5[4:6],,,,,,,,
{8},,,B1,B2,B3,4-8[4:3],,
{8}4h[1:1],,,,,,,,
{8}B7/D7,,,,A1/B1,,,{16}6,5,
{8}4-8-6-2-5[1:2],,,,,,,,
{8},,,,,,,,
{8}8,,1,,2-6V83[4:3],,,,
{8},,,7,6,5,4,3,
{8}2h[8:3],,,1,1h[8:3],,,8,
{8}8h[8:3],,,7,1/6,,2/5,,
{8}3q4[4:3]*>4[4:3]/4,,,,,,,,
{8},,,,C,,,,
{32}8/E2,B2,B3,,,,,,7/D2,A2,D3,,,,,,6/E1,B1,B2,,,,,,,,,,,,,,
{32}1/E8,B7,B6,,,,,,2/D8,A7,D7,,,,,,3/E1,B8,B7,,3,,,,2/5,,,,2,,,,
{32}7/E2,B2,B3,,,,,,6/E1,B1,B2,,,,,,8/D3,A3,D4,,,,,,,,,,3/5,,,,
{32}2,,,,E1,B8,B7,,B3,B4,E5,,,,,,1/D8,A7,D7,,,,,,3-6[8:1],,,,,,,,
{4}3/7x-3[8:1],7/4x-1[8:1],6x-8[8:1]*-2[8:1],6>4[8:1],
{4}6/1x<6[8:1],1/3xv8[8:1],{8}3/5x>1[8:1],,5/7-3[8:1],6,
{4}7/8x-3-5[8:1],8/6x-2[8:1],6/4xp8[8:1]*v7[8:1],,
{8}1,1h[16:3],{16},6,,,3/4,,2,,5/6,,7,,
{16}1/2x,,2,4,3x,,3,1,2x,,2,4,3x,,3,8,2x,,2,5,3x,,4,8,3x,,3,7,4x,,5/6,,
{16}8/7x,,7,5,6x,,6,8,7x,,7,5,6x,,6,1,7x,,7,4,6x,,5,1,6x,,6,2,5/3,,6/1,,
{16}8x>3[8:1],,6,6,8x,,7,,1x<6[8:1],,4,4,1x,,3,,
{16}1x-5[8:1],,5,5,1x,,6,,7x-4[8:1],,3,3,7x,,2,,
{8}1/3,2,1/7,8,5/3,4,5/7-3[8:1],6,
{4}7/1>4[8:1],1/5<8[8:1],5/2-6[8:1],2/8<1[4:5],
{8}8b,,,,,,,,
{8},,,,7,7,3,3,
{8}1-5[2:1]/5,,,,,,,,
{16}E1,B1,B2,E3,E7,B6,B5,E5,E3,B3,B4,E5,7b>7[4:5],,,,
{1}7/1,
{8},,,,2,2,4,4,
{8}5x-1[8:1],,7h[4:1],,8x-4[8:1],,2h[4:1],,
{8}3x-7[8:1],,5h[4:1],,6x-2[8:1],,8h[4:1],,
{8}1,1,2/4,2,1-5[8:1],{16}7,7,1b,,6,,
{8}4/6,4,3/5,3,1-5[8:1],{16}3,3,1b,,6,,
{16}4/6,,7,5,6,,3,4,1-5[8:1],,7,7,1b,,6,,
{16}4,6,5,7,3,6,2,4,1-5[8:1],3,2,8,1b,,6,,
{8}3>8[8:1]/7<4[8:1],3/7,3/7,,5/1,5/1,,7,
{8}6-1[8:1]/2-5[8:1],6/2,6/2,,7/3,7/3,{16}4,5,6hbx[4:1],,
{24},,,5,4,3,2hbx[4:1],,,,,,{32}4,5,6,7,{8}8bxV27-3-6-4[8:7]/2bx,,,
{1},
{8}5V71V35[2:5],,,,3,,,,
{8}2,,,,8h[8:1],,7h[8:1],,
{8}6,,5,,5V38b[1:1],,,,
{8},,,,,,6,,
{8}1V75-3[2:3],,,,6,,,,
{8}7,,8,8,1h[8:1],,2h[8:1],,
{1}1>1p1b[2:3],
{8}5,,6,,7,,8b,,
{16}1/7<4[8:1],,,8,7,,1,,2<7[8:1],5,3,4,2b,,,,
{16}8/2>5[8:1],,,1,2,,8,,7>2[8:1],4,6,5,7b,,4,,
{16}3-8[8:1]/5,,,4,3,,6,,7<4[8:1],,1,1,7b,,,,
{16}6-1[8:1]/4,,,5,6,,3,,2>5[8:1],,8,8,2b,,1,,
{16}7,8,7,8,1/6,,5,,2<7[8:1],4,3,5,2b,,,,
{16}2,1,2,1,8/3,,4,,7V15[2:1],5,6,4,7b,,,,
{8},,2h[4:1],,1h[8:3],,,8,
{8}7,6,5,4,3h[4:1],,2h[4:1],,
{8}1h[4:11],,,B1,B2,,,E4,
{8}B4,,,5,6,6,7,7,
{8}8,,,7,,,6qq4p8[4:3],,
{4},,,{8},{16}2,8,
{16}1bh,1h,1h,1h,2,8,3,7,{32}2hx[8:1]/6bx,5,4,3,,1,8,7,6,5,4,3,2,1,8,7,
{32}6hx[8:1]/2bx,3,4,5,,7,8,1,2,3,4,5,6,7,8,1,2bx/7bx,,,,{24}1/8,2/7,3/6,{32}4/5,,,,2/7,,,,
{16}1b>4[8:1],,5,4,1x<6[8:1],,7,7,1x-4[8:1],,5,4,1x-6[8:1],,6,6,
{16}1x>4[8:1],,5,4,1x,,7,7,2x,4,3,4,1x,5,4,5,
{16}8b>3[8:1],,,4,8,,6,6,4b-8[8:1],,,6,4,,7,7,
{16}1bh[8:1],,4,3,7bh[8:1],,5,8,3bh[8:1],,5,2,7bh[8:1],,,,
{16}3h[8:1],,{24}5,6,7,{16}8<5[8:1],,,2,8,,{24}1,2,3,{16}4>1[8:1],,,,
{24}8,7,6,5,8,7,6,5,4,3,2,1/8,7,6,5,4,3,2,1b/5b,,,,,,
{8}3v8[8:1]/7v4[8:1],3/7,3/7,,6<1[8:1]/2>5[8:1],6/2,6/2,,
{16}4b/8b,,,5b/2b,,,3b/8b,,,2bv5[8:1]/6b-1[8:1],,,2b/6b,,,,
{16}8b<5[8:1],,4,5,8x>3[8:1],,2,2,8x-5[8:1],,4,5,8x-3[8:1],,3,3,
{16}8x<5[8:1],,4,5,8x,,2,2,8b,5,6,6,1b,4,3,3,
{16}8x,5,6,5,1x,4,5,4,8x,3,4,3,1x,4,5,4,
{16}8x,5,6,4,1x,3,5,4,8x,2,5,3,1x,4,6,5,
{16}8bp4[8:1],,,3,8,,2,,1<6[8:1],2,3,4,5/1,,3,,
{16}4bp8[8:1],,6,6,4,,5,,7>2[8:1],6,5,4,3/7,4,5,6,
{16}7/2,8,1,2,3/1,8,7,6,5/4,3,2,1,7,7,5,5,
{24}2b,3,4,5,6,7,8/2h[8:1],,,1b,8,7,6-2[8:1],5,4,3,2,1,8w4b[8:1]/6b,,,,,,
{1}8b>8[1:2]*>8[1:2]/B4f/B3/B5/E4/E5l,,
{1}8>8[4:7]b,,
{2}2>5[2:1]b,5<8[2:1]b,8V24[2:1]b,4V68[2:1]b,
{1}8bqq4qq8[16:47],,,,
{8},2,,,2h[2:1],,,,
{16}3,,,3h[2:1],,,,,,,,
{24}4,,,,5,,,,5,,,,6,,,,6,,,,7,,,,,,,,8,,,,,,,,,,,,,,,
{48}1bp7[48:133],8/2,7/3,6/4,5bp3[48:129]b,
