&title=My Soul, Your Beats!
&artist=Lia
&first=0
&des=Kn
&wholebpm=145
&demo_seek=56.170
&demo_len=35.071
&des_5=Kn
&clock_count=4
&lv_5=13
&inote_5=||
This
chart
was
created
based
on
ongeki
chart
(145){1},{4},,,{8},1,
2/6,7,3/5,6,4/7h[8:1],5h[8:7],4h[8:6],,
,,,,,,,1,
2/6,7,3/5,6,4/7h[8:1],5h[8:7],4h[8:6],,
,,,,,,,1,
2/6,7,3/5,6,2/7,8,1h[4:1]/2,,
8bh[4:0],,,,,,,1,
2/6,7,3/5,6,4/7h[8:1],5h[8:18],3h[8:8],,
{1},
{8}3h[8:1],,2h[8:1],,1h[8:1],,8h[8:1],,
6/7,6/7,5/8,5/8,1/4,1/4,2/3,2/3,
4/5,6/7,1v7[8:1]/8v2[8:1],2/7,,,5/6,4/7,
,3/4,2/5,,{16}1,2,3/4,,8,7,5/6,,
{8}4/5,4,3-5[8:1]/7,3h[8:1],,2,1/6,,
1/8,2,4v6[8:1]/6,4h[8:1],,1,7,5h[8:1],
3,4,3-6[8:1]/5,3h[8:1],,4,3>7pp3[8:7]/7,7,
,6,6,,5,5,,4,
4-8>1-5[8:5]/5,,6,,7,,8,,
5hx[4:3]/6,,4,3,,2,8,,
5>2[4:1]/7,,2<7[4:1],,7<4[4:1],,4-6-8-2[8:3],,
2,2z6[4:1],,6z2b[4:1],,5,7bx,,
4/5,5,2/6>4[8:1],6h[8:1],,7,3/8,8,
1/7,7,3/5v4>3[16:3],5h[8:1],,8,2,4h[8:1],
6,5,6v3[8:1]/4,6h[8:1],,5,2/6<2V86q2[8:7],2/6,
,3,3,,4,4,,5,
2x/5-2<1v8<7-4b[8:5],,1,,8,,6,,
3/5hx[4:3],,4,6,,7,1,3/7,
5V71[4:1]/8,,1V35[4:1],,5<1[4:1],,1q7<1[4:3],,
{1}Chf[4:3],
{8}1/2,1,2/4,2,3/6,3,4/8,4,
1/5,5,3/6,6,5/7,7,1/8,8,
2-6[8:1],2,1-5[8:1],1,8-4[8:1],8,7-3[8:1],,
7<2[8:5],,,,E3,E4,E6,E7,
{8}2hx[8:1]/5,6,3,4h[8:8]/7,,2-5[8:1],8,2,
,2-5[8:1],8,2q5[4:1],,8,8,,
2h[8:1]/5x,6,3,4h[8:11]/7,,2>5[8:1],8,2,
,2v5[8:1],8,2,,2,7,2/4,
2/3-6[8:1],2,2/3,2,1/3-6[8:1],1,1/3,1,
3-6[8:1]/8,8,3-7[8:1]/8-4[8:1],,3/8,,3/6,2,
1/5v2-4-7[8:3],1h[8:3],5x,,,2,3/8,4,
{4}2-6[8:1]/5h[4:1],2xv4[8:1]*v8[8:1],2xw6b[8:1],2bx,
{8}4/7hx[8:1],3,6,2/5h[8:8],,7-4[8:1],1,7,
,7-4[8:1],1,7p4[4:1],,1,1,,
4x/7h[8:1],3,6,2/5h[8:11],,7<4[8:1],1,7,
,7v4[8:1],1,7,,7,2,5<3[8:5]/7,
5,,4,,5,,7,4,
8,5,5p2[8:3]/7,,6,,4,4h[8:7],
2x,,2,,5,,2,1,
2/6,7,3/5,6,4/7h[8:1],5h[8:9],4,,
4,,7,,4,,7h[8:1],1,
2/6,7,3/5,6,4/7h[8:1],5h[8:9],4,,
4,,7,,4,,7h[8:1],1,
2/6,7,3/5,6,4/7h[8:1],5h[8:1],3s7[4:3],,
{4}E6,B8,B4,E2,
{64}B6/D7/E7,B1/C/B5,{32}B2/D3/E3,{16},{8},{64}B7/D7/E7,C/B4/B8,{32}B3/D3/E3,{16},{8},{64}B6/D7/E7,B1/C/B5,{32}B2/D3/E3,{16},{8},{64}B7/D7/E7,C/B4/B8,{32}B3/D3/E3,{16},{8},
{8}4x/5x,4,3/7,2h[4:1],,4>5<4[4:4],,5h[4:1],
,,,4h[4:1],,,,1,
6,5,2/6,7h[4:1],,5<4>5[4:4],,4h[4:1],
,,,5h[4:1],,,,8,
4,3h[4:1],5,6h[4:1],,1qq5[24:19],,1h[8:3],
,,,,{12}2x,3x,4x,{8},4v7-5v8[8:5],
4h[4:5],,,,,,,,
8-4[8:1],,8,,8w4[8:1],,8,,
4x/E6,4,4/B6,4,4/B7,4,4/E8,4,
4/E6,4,4/E7,4,4h[4:1]/E8,,C,,
E4/5,5,B3/5,5,B2/5,5,E2/5,5,
E4/5,5,E3/5,5,E2/5,5,E1/5,5,
8-4[8:1],8,7-3[8:1],7,6-2[8:1],6,5-1[8:1],5,
4-8[8:1],4,3-7[8:1],3,2-6[8:1],2,8-4[8:1],,
8x>3[4:1],,3x<6[4:1],,6x<1[4:1],,4,4,
{16}3h[16:3],,,4h[16:7],,,5,,{8},5,,Ch[8:16]/2x,
{4},2,3,4,
{8}5,5,4,4,3,3,2,2,
{8}1/2,2/3,3/4,4/5,5b/6b,7b/8b,1b/2b,3b/4b,
{8}C/7hx[8:1],3,6,2/5h[8:3],,7-4[8:1],1h[8:4],7,
,7-4[8:1],6h[8:1],7s3b[4:1],,8,8,,
C/2h[8:1],6,3,7/4h[8:3],,2>5[8:1],8h[8:3],2,
,2v5[8:1],3h[8:3],2,,2,7,2/4,
2/3-6[8:1],2,2/3,2,1/3-6[8:1],1,1/3,1,
3-6[8:1]/8,8,3p7[8:1]/8q4[8:1],,3/8,,5/6h[8:3],7,
1v6-8-4[8:3],3h[8:3],1x,,,2,3/8,4,
{4}2-6[8:1]/8-6[8:1],2x-4[8:1]/8x-4[8:1],2xv5b[8:1]/8xv5b[8:1],2bx/8bx,
{8}C/2hx[8:1],6,3,7/4h[8:3],,2-5[8:1],8h[8:4],2,
,2-5[8:1],3h[8:1],2z6b[4:1],,1,1,,
C/7h[8:1],3,6,2/5h[8:3],,7<4[8:1],1h[8:3],7,
,7v4[8:1],6h[8:3],7,,7,2,5<3[8:5]/7,
5,,4,,5,,7,4,
8,5,5p2[8:3]/7,,6,,4,4h[8:7],
2x,,2,,5,,2,1,
2/6,7,3/5,6,4/7h[8:1],5h[8:9],4,,
4,,B6/B7/E7,,4,,7h[8:1],1,
2/6,7,3/5,6,4/7h[8:1],5h[8:9],4,,
4,,B6/B7,,4,,7h[8:1],1,
2/6,7,3/5,6,4/7h[8:1],5h[8:1],3q6b[4:3],,
{4}E6,B5,B4,{8}E4,Cf/B3/D3/E3/B4/B7/D7/E7/B8,
