&title=184億回のマルチトニック
&artist=Pizuya's Cell feat.中村さん
&first=0.037
&des=Kurage
&lv_5=14
&inote_5=(184)
{4},,,,
{16}
2x,6,2,6,2,6,2,6,2,6,2,6,2,6,2,6,
3x,7,3,7,3,7,3,7,4x,8,4,8,4,8,4,8,
5x,7,5,7,5,7,5,7,4x,5,4,5,4,5,4,5,
2x,4,2,4,2,4,2,4,1x,5,1,5,1,5,1,5,
1,5,1,5,1,5,1,5,1,5,1,5,3x,7,3,7,
5x,6,5,6,5,6,5,6,3x,4,3,4,3-7[8:1],4,3,4,
{8}3x,,56,56,34,34,57,57,
{16}8x,4,8,4,6x,5,7,4,5x,2,4,3,{8}8xb,,
7-4[8:1],1-5[8:1],7,1,6V47[4:1],4,3,3,
2-6[8:1],8-5[8:1],2,8,4w8[8:1],4,,,
6x/2x,7-3b[8:1],4,7x/3x,1-5b[8:1],4,5x/1x,7b-3-7[8:2],
,5b,5b,,4x-2[8:1]/6x-8[8:1],B5,,,
{4}
1x-5[4:2],7,7,7,5-1[4:2],6,6,6,
2-4[16:3],5,8-6[16:3],5,{8}3h[4:1],,6,6>3[4:1],,3pp6[8:4],,,
{4}2,2,18,18,57,57,{8}34,3qq4[8:3],,5,
,,7h[4:1],,5,5p4[16:7],,4,4,,3,3>6[4:1]*p6[4:1],,,,,
{8}45,,3,4,2-4[8:1],2,5-7[8:1],5,3-6[8:1],3,8,8,5qq5[8:3]*pp5[8:3],,,,
,,46,4,5-8[8:1],,3,3,2>5[8:1],,7,7>2[8:1],,4-1[8:1],,5,
5h[4:1],,6,5x/7x-3[8:1],,,E1/B1,,4h[4:1],,3,4x/2x-6[8:1],,,E1/B8,,
{16}45,,,34,,,57,,81,,,36,,,45,,{4}2x-5[8:1]/7x-4[8:1],2x/7x,8x<5b[8:1]/1x>4b[8:1],,
{8}6x-8[8:1],7,5x-1[8:1],4,7x<4[8:1],7,8x,8,
{16}6,2,6,2,6x,,5x/4x,,3>8[8:1],7,3,7,3x,,,,
{8}5-8[8:1],6,4x,2,5-8[8:1],6,4x,2,
{16}7,8,7,,2,1,2,,{8}8x<5[8:1]/1x>4[8:1],7x/2x,,,
3x-1[8:1],2,4x-8[8:1],5,2x>5[8:1],2,1x,1,
8x/4x,{16}7,5,7,5,6,,{8}7x-4[8:1]/5-x1[8:1],8x,,,
{16}5x/3x,,2,4,2,4,3,,{8}2x-5[8:1]/4x-8[8:1],1x,,,
{8}6x/4x,64,7x/3x,73,8x-4[8:1]/2x-6[8:1],1x,8xb/2xb,,
7x-5[8:1],7x,8,1,2x-8[8:1],2x,3,4,
5x-3[8:1],5x,6,7,8x-6[8:1],8x,1,2,
3x-1[8:1],3,5x-7[8:1],5,4x-8[8:1],,4xw8[8:1],,
4xb,,{16}2,6,2,6,{32}2,3,4,5,6,7,8,1,{4}2-6b[8:1],
2b-4[8:1]/4b-1[8:1],2/4-6[8:1],8-5[8:1],2-8[8:1]*-4[8:1]/8,
2-6[8:1],5>2[8:1]/2,8w4[8:1]/5,8,
{8}6xpp6[4:1],,6>8[32:9]/4,3x,2xpp2[4:1],,,7x,
7x-3[8:1],,1-4[8:1]*>2v4[8:1]/7,,1<8v6[8:1]*-6[8:1],,1,,
3<6[8:1]/4,,23,2,2/3-7[8:1],2,23,2,2/3q5<8[16:7],2,23,2,2,2,2-6[8:1],,
2/4q8[8:1],,3-7[8:1]/4,,3/1<6[8:1],,1/5-1[8:1],,
7-3[8:1]/5,,78,,{16}42,5,6,7,8<5[8:1],1,2,3,
{4}4x-8[8:1],{8}3-6[8:1]/4,3,{4}1-4[8:1],7-1[8:1]*-5[8:1]/1,
7-3[8:1],4<7[8:1]/7,1w5[8:1]/4,1,
{8}3xqq3[4:1],,3<1[32:9]/5,6x,7xqq7[4:1],,,2x,
2x-6[8:1],,8-5[8:1]*<7v5[8:1]/2,,8>1v3[8:1]*-3[8:1],,8,,
5-2[8:1]/6,,1-6[8:1],,7-3[8:1],,5,5>7[8:3],,1<5[8:2],,5V31[4:1],,1,8,7,
7-3[8:1]/8,,73,1>4[8:1]*<6[8:1],,1w5[8:1],,1,
,,6b-1[8:1]/2b-5[8:1],,6b/2b,,{12}8b-4[8:1],2,6,
{4}4xb>5[8:3]`Cf,{8},,B4/E4/B3,,2-6[8:1],2,
5pp4[8:3],,4,4,,3,3>6[16:5],,7,,5<3[8:3],,3,,4-8[8:1],,
,,1x>4[8:1]/5x<8[8:1],,1xw5[8:1]/5x,,1x,,
7-3[8:1],7,1<6[8:1],1,4-8[8:1],4,2,2,
{16}37,,6,5,7,4,5,2,4,3,6,2,8,,1x/7x,,
{16}6h[16:3],,,5,6,,78,,2h[16:3],,,4,2,,18,,
{8}7/2-6[8:1],2,8-5[8:1]*-3[8:1],8,,,6xh[8:1]/2xh[8:1],,
{16}3h[16:3],,,4,3,,21,,7h[16:3],,,5,7,,81,,
{8}2/7-3[8:1],7,1-4[8:1]*-6[8:1],1,,,3xh[8:1]/7xh[8:1],,
{16}6h[16:3],,,8,6,,65,,3h[16:3],,,1,3,,34,,
5h[8:1]/7h[8:1],,,57,,,45,,4h[8:1]/2h[8:1],,,42,,,54,,
{8}6-3[8:1],6,2,2,18,18,27,27,
3x-5[8:1]/6x-4[8:1],,3-8[8:1]/6-1[8:1],,3x/6x,,2b/7b,,
{16}18,2,3,4,2,3,4,5,3,4,5,6,4,5,6,7,
{8}8>3[8:1],2,8<5[8:1],{16}4,4,{8}8w4[8:1],2,8,,
{16}81,7,6,5,7,6,5,4,6,5,4,3,5,4,3,2,
{8}1<6[8:1],7,1>4[8:1],{16}5,5,{8}1w5[8:1],7,1,,
28,3,3,45,6,6,1>4[8:1]/7,2,
6,8<5[8:1],7,3,1-5[8:1],2,5,7bs3[16:25]*z3[16:25],,,,,,,,,,,,,,,,,
{4}4x-1[4:6]/5x-8b[4:6],,,,,,,,2xq3[16:9]/7xp6b[16:9],,,,
{8}4b>1[8:1]/5b<8b[8:1],,4b-8[8:1]/5b-1b[8:1],,4b/5b,,2b/7b,,6x>3[8:1]/5x,,76,7,7/6-2[8:1],7,76,7,7/6p4>1[16:7],7,76,7,7,7,7-3[8:1],,
7/5p1[8:1],,6-2[8:1]/5,,6/8>3[8:1],,8/4-8[8:1],,
2-6[8:1]/4,,21,,{16}57,4,3,2,1>4[8:1],8,7,6,
{4}5x-1[8:1],{8}6-3[8:1]/5,6,{4}8-5[8:1],2-8[8:1]*-4[8:1]/8,
2-6[8:1],5>2[8:1]/2,8w4[8:1]/5,8,
{8}6xpp6[4:1],,6>8[32:9]/4,3x,2xpp2[4:1],,,7x,
7x-3[8:1],,1-4[8:1]*>2v4[8:1]/7,,1<8v6[8:1]*-6[8:1],,1,,
4-7[8:1]/3,,8-3[8:1],,2,2-6[8:1],,4<2[8:3],,8>4[8:2],,4V68[4:1],,8,1,2,
2-6[8:1]/1,,26,8<5[8:1]*>3[8:1],,8w4[8:1],,8,
,,3b-8[8:1]/7b-4[8:1],,3b/7b,,{12}1b-5[8:1],7,3,
{4}5xb<4[8:3]`Cf,{8},,B5/E6/B6,,7-3[8:1],7,
4qq5[8:3],,5,5,,6,6<3[16:5],,2,,4>6[8:3],,6,,5-1[8:1],,
,,8x<5[8:1]/4x>1[8:1],,8xw4[8:1]/4x,,8x,,
2-6[8:1],2,8>3[8:1],8,5-1[8:1],5,7,7,
{16}62,,3,4,2,5,4,7,5,6,3,7,1,8,2,3,
4x/5x,6,7,8,2,3,4x/5x,6,7,8,2,3,4x/5x,6,7,8,
1x/2x,3,4,5,7,8,1x/2x,3,4,5,7,8,1x/2x,3,4,5,
7x,8,6,1,8,2,4x,3,5,4,7,5,8x,1,6,2,
{32}D7,D6,D5,D4,D3,D2,D1,D8,E7,E6,E5,E4,E3,E2,E1,E8,{4}Chf[4:1],,
{8}2x-5[8:1],8-4[8:1],2,8,3V52[4:1],5,6,6,
7-3[8:1],1-4[8:1],7,1,5w1[8:1],5,,,
3x/7x,2-6b[8:1],5,2x/6x,8-4b[8:1],5,4x/8x,2b-6-2[8:2],
,4b,4b,,5x/3x-7[8:1],C,,1w5[8:30],
