&title=MANIERA REMASTERED
&artist=ABE_YUTA
&first=0.067
&des=Kurage
&lv_5=15
&inote_5=(208)
{1},
{8}3,,3,,3,7h[16:1],7h[16:1],7h[16:1],
{16}1b/5b,,2,4,3,4,2,4,2,4,{8}3h[16:1],3h[16:1],3h[16:1],
{16}6b/4b,,6,4,5,4,6,4,6,4,{8}5h[16:1],5h[16:1],5h[16:1],
{16}
3,4,3,4,2,1,8,7,6,5,6,5,7,8,1,2,
3,4,3,5,4,6,5,7,{32}1,2,3,4,5,6,7,8,{4}15,
{12}
2,2,2,2,2,2,2,2,2,8,8,8,8,8,8,2,2,2,2,2,2,6,6,6,
4,4,4,4,4,4,4,4,4,5,5,5,5,5,5,3,3,3,3,3,3,4,4,4,
2h[12:1],6h[12:1],4,35,,,7h[12:1],5h[12:1],6,48,,,
1h[12:1],5h[12:1],3,48,,,26,8,1,1w5[8:1]/7,,,
{4}1b,{16}3,,3,4,3,,3h[4:1],,,,4,,3h[8:1],,7,,7,5,7,,7h[8:1],,1,1,1,,28,,
{8}
3-5[8:1],4,1-3[8:1],2,7-1[8:1],8,5-7[8:1],6,
3V51[8:2],4,1-3[8:1],8,7-5[8:1],6,4-8[8:1],3,
1-3[8:1],2,7-5[8:1],8-4[8:1],7,8,6,{16}3,4,
1,5,3,4,1,5,3,4,{4}1b-5[8:1],,
{16}
2,4,3,4,2,4,3,4,1,5,3,5,1,5,3,5,
4,6,5,6,4,6,2,6,2,1,2,8,2,1,2,8,
1,7,1,5,1,7,1,5,8,4,8,6,2,8,2,4,
{24}1,2,3,4,5,6,1,2,3,4,5,6,{4}7b-5[8:1]/8b-4[8:1],,
{16}2-6[8:1],1,2,3,{4}2b,{16}8-4[8:1],1,8,7,{4}8b,
{24}3,2,1,8,7,6,3,2,1,8,7,6,3,2,1,8,7,6,{4}4h[8:1]/5h[8:1],
{16}7-3[8:1],8,7,6,{4}7b,{16}1-5[8:1],8,1,2,{4}1b,
{24}6,7,8,1,2,3,6,7,8,1,2,3,6,7,8,1,2,3,{4}5h[8:1]/4h[8:1],
{16}3-7[8:1],5,3,1,{4}3b,{16}6-2[8:1],4,6,8,{4}6b,
{48}3,4,,,,,6,5,,,,,2,4,,,,,7,5,,,,,1,3,,,,,8,6,,,,,1,2,,,,,8,7,,,,,
{16}6-2[8:1],4,6,8,{4}6b,{16}3-7[8:1],5,3,1,{4}3b,
{48}15,2h[48:5],,,,,3,4h[48:5],,,,,5,6h[48:5],,,,,7,8h[48:5],,,,,
{48}1,2h[48:5],,,,,3,4,,,,,5,6h[48:5],,,,,7,8,,,,,
{8}1h[8:1]/5,3h[8:1],5h[8:1],7h[8:1],1h[8:1],3,5h[8:1],7,
{8}15,3,3,3,15,7,7,7,
{4}15,1h[16:1]/5h[16:1],1h[16:2]/5h[16:2],1h[16:3]/5h[16:3],
{4}1w5[8:1]/5,1b,{16}3,,3h[4:1],,,,4,,3h[8:1],,7,,7,5,7,,7h[8:1],,1,1,1,,28,,
{16}
4,6,5,6,4,6,2,6,4,6,3,6,5,6,4,6,
2,8,4,8,3,8,5,8,4,8,6,8,5,8,3,8,
2,8,4,8,5,6,4,6,2,8,4,8,5,6,3,4,
1,5,3,4,1,5,3,4,{4}1b-5[8:1],,
{16}
4h[16:1],6,5h[16:1],6,4h[16:1],6,2h[16:1],6,
4h[16:1],6,3h[16:1],6,5h[16:1],6,4h[16:1],6,
2h[16:1],8,4h[16:1],8,3h[16:1],8,5h[16:1],8,
4h[16:1],8,6h[16:1],8,5h[16:1],8,3h[16:1],8,
2h[16:1],8,4h[16:1],8,5h[16:1],6,4h[16:1],6,
2h[16:1],8,4h[16:1],8,5h[16:1],6,3h[16:1],4,
{32}2,3,4,5,6,7,8,1,{4}2-7[8:1]/6-3[8:1],2b/6b<2[4:7],{8}4,4,
5,3,4,5,3,4,3,5,4,6,5,7,8,8,4,3,
2>6[4:5],7,8,1,7,8,7,1,8,2,1,3,4,4,8,7,
6<2[4:2],3,4,5,5,3,4,6,2>6[4:2],7,8,1,1,7,8,2,
{16}
6h[8:1],,5,6,5,6,,,2h[8:1],,4,2,4,2,4,2,
4h[8:1],,8,4,8,4h[8:1],,,1,5,1,5,2,6,2,6,
{16}
1h[16:1],2,3,4,7h[16:1],8,1,2,5h[16:1],6,7,8,3h[16:1],4,5,6,
1h[16:1],8,1,8,1,8,{24}1,8,1,8,1,8,1,27,36,{16}4-1[8:1]/5-8[8:1],36,,,
{4},3b/6b,{12}1,4,1,4,1,4,
{16}1,4,1,4,1,4,1,4,{24}1,4,1,4,1,4,1,4,1,4,1,4,
{4}1-4[8:1],{16}1b/4b,,6,6,5,,6h[4:1],,,,5,,
6h[8:1],,2,,2,4,2,,2h[8:1],,8,8,8,,17,,
26,,1,1,18,,1,,
{8}
6-4[8:1],5,8-6[8:1],7,2-8[8:1],1,4-2[8:1],3,
6V48[8:2],5,8-6[8:1],1,2-4[8:1],3,5-1[8:1],6,
8-6[8:1],7,2-4[8:1],1-5[8:1],2,1,3,{16}6,5,
8,4,6,5,8,4,6,5,{4}8b-4[8:1],,
{16}
3-5[8:1],3,4,4,3,,7,,1-5[8:1],1,3,3,1,,2,,
7-1[8:1],7,8,8,7,,3,,5-1[8:1],5,1,1,5,,6,,
3-6[8:1],3,4,4,3,,8,,7-2[8:1],7,8,8,7,,4,,
3b/6b,,5,4,6,5,7,6,8-4[8:1],,1,,,,1,,
2,,3,4,2,3,1,2,8-4[8:1],,7,,,,7,,
3b/6b,,5,4,7,6,8h[8:1],,2,,3,4,1,2,8h[8:1],,
6,5,4,7,6,5,{32}8,1,2,3,{4}4b>1[8:1]/8b<5[8:1],,
{8}2bqq7[4:3]/6b,,,,,4h[16:1],4h[16:1],4h[16:1],
5bpp4[16:9],,,,{16},1,,,{8}2h[16:1],2h[16:1],
{16}
3,4,3,4,2,1,8,7,6,5,6,5,7,8,1,2,
3,4,3,4,2,1,8,7,65,4,3,2,48,,26,,
7,5,6,5,7,8,1,2,3,4,2,4,3,2,1,8,
7,5,6,5,7,8,1,2,34,5,6,7,84,,62,,
3b,5,4,5,4,5,4,5,2b,4,3,4,3,4,3,4,
1b,3,2,3,2,3,2,3,1,8,7,6,{12}15,4,3,
{24}8,7,6,{16}5,4h[16:1],{24}8,7,6,{16}5,4h[16:1],
{24}1,8,7,{16}6,5h[16:1],{24}1,8,7,{16}6,5h[16:1],
{24}2,1,8,{16}7,6h[16:1],{24}2,1,8,{16}7,6h[16:1],
{24}2,1,8,{16}7,6h[16:1],{24}2,1,8,{16}7,,
{8}56,56,45,45,{12}24,24,24,1b/5b,1b/5b,1b/5b,
(104)
{8},,,
(208)
{12}
1b-5[48:81],4,3,4,3,4,3,4,3,4,2,4,2,4,2,4,3,4,3,4,3,1,,,
8b-4[48:81],5,6,5,6,5,6,5,6,5,6,5,6b,5,6,5,7,5,6,5,6,8,,,
1b-5[48:81],4,2,4,2,4,2,4,2,4,3,4,3,4,3,4,2,4,2,4,2,1,,,
8b-4[48:41],5,6,5,6,5,6,5,6,5,6,5,8b,,,{16}3,5,3,5,{24}2,6,2,6,2,6,{4}2,
{12}75,7,7,71,7,7,7,7,7,17,1,1,1,1,1,71,7,7,7,7,7,73,3,3,
5,5,5,54,5,5,5,5,5,4,{24}4,5,{12}4,4,4,4,46,6,6,6,6,6,65,5,5,
7h[12:1],3h[12:1],5,64,,,2h[12:1],4h[12:1],3,51,,,
8h[12:1],4h[12:1],6,51,,,73,1,8,28,4,6,
{16}
1b/5b,,2,3,4h[16:2],3,,5h[16:2],4,,6h[16:2],5,,7h[16:1],,,
8b/4b,,7,6,5h[16:2],6,,4h[16:2],5,,3h[16:2],4,,2h[16:1],,,
1b/5b,,2,3,4h[16:2],3,,5h[16:2],4,,6h[16:2],5,,7h[16:1],,,
{32}6,5,4,3,2,1,8,7,64,5,4,3,2,1,7,8,26,3,4,5,6,7,8,1,2-6[8:1]/8-4[8:1],37,46,,{8},
{8}2b/8b,,57,5,54,4,4-8[8:1]/2-6[8:1],2,
{8}4b/2b,,71,7,75,5,5-1[8:1]/4-8[8:1],4,
{8}4b/5b,,{48}2h[16:1],7h[16:1],,,,,2,7,,,,,
3h[16:1],6h[16:1],,,,,3,6,,,,,4-7[8:1],5-2[8:1],,,,,4,5,,,,,
{8}4b/5b,,{16}1,8,1,8,2,7,3,6,{24}4,5,4,5,,,
(184){16}24,3,24,3,{4}24,
(172){16}75,6,75,6,{4}75,
(153){16}6b/3b,,18,18,
(146){16}18,,
(109){16}18,,
(208){4}5b/4b`3b/6b,,,,
