&title=NO EXIT ORION
&artist=Printemps
&first=0
&des=靈風/luvlily
&des_5=靈風
&des_6=luvlily
&lv_5=12+
&lv_6=13
&inote_5=(164)
{1},
{1}3h[2:1],
{1}4h[2:1],
{1}5h[2:1],
{16}6h[4:1]/5h[2:1],,,,,,,,4,3,2,1,8,7,6,5,
{8}4/8>3[8:1],,7,,6/4,4,3/4-6[8:1],,
{8}2/4,,1-3[8:1],1-5[8:1],,,,,
{4}2<6[4:1],6>6[2:1],2,6V42[4:1],
{16}5h[4:1],,,,,,3,4,2,,2,,2q6[8:1],,,,
{16}2h[4:1],,,,,,7,8,6/1,,7,,6>3[8:1]/1,,8,,
{16}6h[4:1],,,,,,3,,2/4,,1,,5/7,,6,,
{2}3h[2:1]/5,5h[2:1],
{8}4-1[8:1],,,5-8[8:1],,,2h[4:3],,
{16},,6,,6,,6,,7h[4:1],,8,,2h[8:1],,1,,
{8}6h[8:1],4,6h[8:1],4,6h[8:1],4,6h[8:1],4,
{8}6,5,4,3<6[8:1],,2,2,1,
{8}1h[8:1],7,1h[8:1],7,1h[8:1],7,1h[8:1],7,
{8}1,2,3,4>1[8:1],,4,5,6,
{8}7h[8:1],2,7h[8:1],2,7h[8:1],2,7h[8:1],2,
{8}7h[8:3],,,8<5[8:1],,8,1,2,
{8}3h[8:1],6,3h[8:1],6,3h[8:1],6,3h[8:1],6,
{16}3/6,,4,,3/6,,5,,3/4,,1/2,,7/8,,6,5,
{16}6v1[8:1],,,,6/4,,3,,2,,3,,4/7,,2,1,
{16}3/8,,4,,3/8,,6-8[8:1],,,,6,,3,,2,1,
{16}2v5[8:1],,,,2/8,,7,,6,,7,,8/3,,6,5,
{16}4/7,,6/3,,5/2,,4/1-4[8:1],,,,1,,5,,6,,
{16}7<4[8:1]/3,,,,7/4,,3<6[8:1],,2,,2,,1,,8,7,
{16}1v2[8:1]/6,,1,,6,,5h[4:1],,,,2,,3,,4,5,
{16}4,,3,,2h[8:1]/6h[8:1],,,,8-3[8:1],,1pp5[8:7],,8,,1,,
{8},4,5,6,7,8,8,,
{8}4h[2:1],8,7,5,6h[2:1],1,2,4,
{8}3h[2:1],7,6,4,{16}5,3,5,3,6,4,6,4,
{8}6h[2:1],4,5,3,2h[2:1],6,7,1,
{16}8-5[8:1],,3,,8,,1-4[8:1],,6,,1,,8,7,6,5,
{8}2h[2:1],6,5,7,6h[2:1],2,3,1,
{8}8h[2:1],4,5,6,7h[4:1],1,{16}1,2,3,4,
{8}8b/5b,,2b/6b,3b-6[8:1]/8b-5[8:1],,3b>8[8:1]/8b>3[8:1],,3bpp5[4:1]/8bq6[4:1],
{8},,,,,{24}7,6,5,4,3,2,1,8,7,
{16}6b/3b,,2,,1/6h[8:1],,8,7,1/6,,5-7[8:1]*-8[8:1],,3/4,,5>3[8:1]*-2[8:1],,
{16},,5w1[8:1],,,,5,,,,7,,6/1,,2,4,
{16}2h[4:1],,7,,6,,5,3,5-7[8:1],,4-2[8:1],,5p4[8:3],,4,,
{16}5,,1,,2,,3h[4:1],,,,5,,3V16[4:1],6,3,6,
{16}3,,5,,7,,8,5,8h[8:1],,3,,2pp2[4:1],8,2,8,
{16}2,,7>4[4:1],,6,,5h[8:3],,,,,,3,,2,4,
{16}2,,6,5,6,,3,4,3,,7,5,7,,2,8,
{16}1,7,1,7,1,,2/6h[4:1],,,,{24}5,4,3,2,1,8,7,6,5,
{16}4/7,,7,,8/3h[8:1],,1,2,8/3,,4-2[8:1]*-1[8:1],,6/5,,4<6[8:1]*-7[8:1],,
{16},,4w8[8:1],,,,4,,,,2,,3/8,,7,5,
{16}7h[4:1],,2,,3,,4,6,4-2[8:1],,5-7[8:1],,4q5[8:3],,5,,
{16}4,,8,,7,,6h[4:1],,,,4,,6V83[4:1],3,6,3,
{16}6,,4,,2,,1,4,1h[8:1],,6,,7qq7[4:1],1,7,1,
{16}7,,2<5[4:1],,3,,4h[8:3],,,,,,6,,7,5,
{16}7-4[8:1],,6,,3-8[8:1],,2,,6<1[8:1],,7,,2>5[8:1],,3,,
{16}8,,8,,4,,4-1[8:1],,,,,,8,7,6,5,
{16}4v7[8:1]/3,,2,,4-8[8:1],,3,,4/6h[8:1],,,,1>4[8:1],,7,,
{16}1<6[8:1],,8,,1/3h[8:1],,,,2h[8:1]/4h[8:1],,,,6h[8:1]/7h[8:1],,,,
{8}2h[8:1]/5h[8:1],,7h[8:1]/8h[8:1],,1-5[8:1]/6,5,1pp4[2:1],6,
{16}7,,7,,7,,7h[4:1],,,,5,7,4,6,3,5,
{8}2-8[8:1],4,2-4[8:1],5,2/6h[8:1],,3-1[8:1],5,
{8}3-5[8:1],6,3/7h[8:1],,8h[4:1],,5h[4:1],,
{1}4pp1[2:3]*qq7[2:3],
{1},
{8}8h[4:3],,,,,,2,2,
{8}3h[8:3],,,7,6,5,4,,
{1}3>6[2:1],
{1}7<2[2:1],
{1}1s5[4:3],
{4}8-4[8:1],,{24}3,2,1,8,7,6,5,4,3,8,7,6,
{8}5-1[8:1]/2-5[8:1],,2/5,,4/8,3-5[8:1],7,7-1[8:1]/3,
{8},3-7[8:1]/7,,5h[4:1]/3,,,{16}4,5,3,6,
{8}2-6[8:1]*-5[8:1],,2,,7,6,2,3<6[8:1]/5>2[8:1],
{8},3v8[8:1]/5v8[8:1],,3/5,,1/7,2/6,3/5,
{16}4,3,2,1,7,6,5,4,8,1,2,3,5,6,7,8,
{16}1/3,4,5,6,7,8,1q5[8:1],,,,1,,6,,7,4,
{16}6/5,,3,,2/4,,6,,7/4,,3,,2/5,,7b/8b,,
{1},
{1}5h[1:3],
{1},
{1},
{1},
{1}4-1[4:3],
{1}4-1[4:3],
{1}4-1[4:3],
{8}4b,,,4,,2,3,4,
{8}4w8[8:1],,,,2/6,{24}3,2,1,8,7,6,5,4,3,
{16}2b/7b,,6,,5/2h[8:1],,4,3,5/2,,1>5[8:1]*V35[8:1],,7/8,,1V75[8:1]*<5[8:1],,
{16},,1w5[8:1],,,,1,,,,3,,2/5,,6,8,
{16}6h[4:1],,3,,2,,1,7,1-3[8:1],,8-6[8:1],,1pp8[8:3],,8,,
{16}1,,5,,6,,7h[4:1],,,,1,,7V58[4:1],2,7,2,
{16}7,,1,,3,,2,8,2h[8:1],,7,,6pp6[4:1],4,6,4,
{16}6,,3<8[4:1],,2,,1h[8:3],,,,,,7,,6,8,
{16}6,,2,1,2,,7,8,7,,3,1,3,,6,4,
{16}5,3,5,3,5,,6/2h[4:1],,,,{24}1,8,7,6,5,4,3,2,1,
{16}8/3,,3,,4/7,,5,6,4/7,,8-4[8:5],,2/1,,8,,
{16},,8h[4:1],,,,,,,,,,5pp5[4:1]*qq5[4:1],,,,
{16},,,,,,,,7<5[8:1],,2>4[8:1],,7pp2[8:3],,2,,
{16}7,,4,,4,,3h[4:1],,,,8,,2pp3[4:1],7,2,7,
{16}2,,8,,6,,7,1,7h[8:1],,2,,3qq4[4:1],5,3,5,
{16}3,,6>1[4:1],,7,,8h[8:3],,,,,,2,,2,3,
{16}4b/5,,8,7,6b/5,,1,2,3b/4,,7,6,4/5b,,3,6,
{16}4/5,,4,,5/3,,5-8[8:1],,,,,,1,2,3,4,
{16}5v2[8:1]/6,,7,,5-1[8:1],,6,,5/3h[8:1],,,,8<5[8:1],,2,,
{16}8>3[8:1],,1,,8/6h[8:1],,,,7h[8:1]/5h[8:1],,,,3h[8:1]/2h[8:1],,,,
{8}7h[8:1]/4h[8:1],,2h[8:1]/1h[8:1],,8-4[8:1]/3,4,8qq5[2:1],3,
{16}2,,2,,2,,2h[4:1],,,,4,2,5,3,6,4,
{8}7-5[8:1],5V71[4:1],7-1[8:1],4,3h[8:1],,6-4[8:1],4V68[4:1],
{8}6-8[8:1],3,2h[8:1],,1h[4:1],,4h[4:1],,
{1}5>5[1:1]*<5[1:1],
{2},{16}5,6,7,8,1,2,3,4,
{8}5/1<6[8:1],,2,,3/5,5,6/5-3[8:1],,
{8}7/5,,8-6[8:1],8-4[8:1],,,,,
{4}7>3[4:1],3<3[2:1],7,3V57[4:1],
{16}4h[4:1],,,,,,6,5,7,,7,,7p3[8:1],,,,
{16}7h[4:1],,,,,,2,1,3/8,,2,,3<6[8:1]/8,,1,,
{16}3h[4:1],,,,,,6,,7/5,,8,,4/2,,3,,
{2}6h[2:1]/4,4h[2:1],
{8}5h[8:3],,,4,,,2h[4:9]/7h[4:9],,
{16},
&inote_6=(164){1},
{16}8-4[2:1],,,,,,,,3,,,,,,,,
{16}1-5[2:1],,,,,,,,6,,,,,,,,
{16}8<4[2:1],,,,,,,,3,,,,,,,,
{16}1h[2:1],,,,,,,,8,1,8,2,7,,4,5,
{16}3b/6b<3[4:1],,,,6/8,,,,4q5[4:1],,5,,4/6,,,,
{16}8<3[4:1],,,,3,,2h[4:1],,,,1,,3-1[8:1]/8-4[8:1],,,,
{16}3/8,,,,1p5[8:1]/6^8[8:1],,,,16,,,,1V36[4:1]/4V27[4:1],,,,
{16},,,,,,1,2,38,,7,,{16}6<4[4:1],5,6,,
{16}2h[4:1],,,,,,5-1[8:1],6,7^4[8:1],,5,,7q4[16:3],,{24}8,,,
{16}3h[4:1]/7,,,,,,6-3[8:1],5,8-5[8:1],,6,,8>7[16:6],,2,,
{16}6h[4:1],,,,,,,,8,,1,,35,,,,
{16}2p4[8:3],,,,,,4>7[8:3],,,,,,7bpp4[8:5],,,,
{16},,,,,,,,6^1[8:1],,,,,,,,
{16}3,,,,3,,,,3/1<4[4:3],,,,3,,,,
{16}3,,,,3,,,,3,,,,3,,,,
{16}3/4q2[2:1],,,,3,,,,3,,,,3,,,,
{16}3q7[2:1]*p7[2:1],,,,,,,,,,,,,,,,
{16}68,,,,6,,5,,6,,,,64,,,,
{16}62,,,,6,,1,,6,,,,68,,,,
{16}6/7p4[4:3],,,,6,,,,6,,,,6,,,,
{16}8h[4:1],,,,,,2,3,6/4-1[8:1]*-7[8:1],,,,4,,,,
{16}8,,,,2h[8:2],,4-1[8:1],,,,3,,3^6[8:1],,,,
{16}7,,8-5[8:1],,1,,2,,,,3,,4/6^8[8:1],,,,
{16}1h[4:1],,,,8,,2^7[8:1],,,,6,,6-2[8:1],,,,
{16}3,,4-1[8:1],,5,,6,,,,8,,7,,2,,
{16}1-7[8:1]/5h[4:1],,,,1,,5-8[8:1],,,,5,,2h[4:1],,,,
{16}1-4[8:1],,,,12,,3^6[8:1],,,,7,,8qq7[4:1]*pp1[4:1],,1,,
{16},,,,,,,,1,,2-5[8:1]/8-5[8:1],,37,,28,,
{16},,3pp6[2:1],,4,,5,,6,,7,,8b,,,,
{16}1q5[2:1],,,,,,,,4^6[8:1],,,,,,,,
{16}8p4[2:1],,,,,,,,5^3[8:1],,,,,,,,
{16}2q6[2:1],,,,,,,,5^7[8:1],,,,,,,,
{16}1,,1^6[8:1]/8,,,,12,,,,3,4,3,5,2,,
{16}1-5[8:1]/6,,,,6v3[8:1]/1,,,,6/4-8[8:1],,,,2v7[8:1]/4,,,,
{16}2/5-1[8:1],,,,5/3-7[8:1],,,,3/8,,,,12,,3,5,
{16}1-5[8:1],,,,1,,6,,,,4^1[8:1]/6^1[8:1],,,,4/6,,
{16},,,,1b,,,,,,{16}3-6[8:1]/7,,6V48[4:1],,3,,
{16}7-3[8:1],,,,7,,1<4[4:1],,,,4p7[4:1],,,,7p2[4:1],,
{16},,2<6[16:3]*>6[16:3],,,,,,,,,,1qq5[8:3]/7,,2,,
{16}1^4[8:1]/3,,,,,,,,6-8[8:1],,2-4[8:1],,6-2[8:1],,2V85[4:1],,
{16}6,,,,3,,3,,6,5,6,4,7,1,8,2,
{16}8^5[8:1],,5,,4/8b,,2,,8^3[8:1],,3,,4/8b,,6,,
{16}8^5[8:1],,5,,8b/4,,2,,8^3[8:1],,3,,8b/4,,7,,
{16}86,,7,,31,,2,,58,,6,,14,,3,,
{16}8/5,,{24}64,,,{16}35,,{16}1b/8h[4:1],,,,{24}5,6,7,8,1,2,3,4,5,
{16}8w4[8:1]/6,,,,8b,,,,26,,2/6p1[4:1],,,,1p4[4:1],,
{16},,4>8[16:3]*<8[16:3],,,,,,,,,,5pp4[8:3]/7,,3,,
{16}5/1^4[8:1],,,,1,,,,5-1[8:1],,2^5[8:1],,5^8[8:1],,2,,
{16}1v4[8:1]*v6[8:1],,,,,,,,35,,3,5,2,4,1,3,
{16}8<4[8:1],,,,8pp2[8:1]/1,,,,7/8<4[8:1],,,,18,,,,
{16}2>6[8:1]/3,,,,2qq8[8:1]/1,,,,3/2>6[8:1],,,,12,,,,
{16}7-3[8:1],,7,,5-2[8:1],,5,,1v6[8:1],,1,,8-3[8:1],,8,,
{16}5,,6<3[4:1],,57,,6/8h[4:1],,,,,,1,5,1,5,
{16}7^4[8:1],,18,,3-7[8:1]/7,,1,,32,,,,4-1[8:1]/8,,5,,
{16}7^2[8:1]*v4[8:1]/4,,8,,7,,,,5-1[8:1]/3,,6,,57,,8,,
{16}2-5[8:1],,6-1[8:1],,2,,6,,3-8[8:1],,7-4[8:1],,3,,7,,
{16}1,,8>7[4:1]/6,,17,,8/2h[4:1],,,,,,1,8,1,8,
{16}1-6[8:1],,7,,1^4[8:1]/6^1[8:1],,4,,16,,,,8-3[8:1],,2,,
{16}8^5[8:1]/3^8[8:1],,5,,83,,,,84,1,2,3,47,6,5,4,
{16}7bpp2[2:2]/3bpp6[2:2],,,,,,,,,,,,,,,,
{16},,,,,,,,,,,,,,,,
{16}4h[1:1],,,,,,,,,,,,,,,,
{16}5h[2:1],,,,,,,,6h[2:1],,,,,,,,
{16}8V63[2:1],,,,,,,,2,,,,2,,,,
{16}1V36[2:1],,,,,,,,7,,,,7,,,,
{16}8-4[8:3],,,,,,3,,3,,,,1,,8,,
{16}2/7h[2:1],,,,,,,,{24}5p3[4:1],6,7,8,1,2,3,,,,,,
{16}1-5[8:1],,,,18,,,,6,,4,,25,,3/4q1[8:1],,
{16},,4/1>7[4:1],,,,3h[4:1],,,,,,3,8,4,8,
{16}5^2[8:1],,,,35,,,,1,,8,,27,,4b^2[8:1]/5b-2[8:1],,
{16},,4b-7[8:1]/5b^7[8:1],,,,4b-8[8:1]/5b-1[8:1],,,,4b/5b,,,,27,,
{16}3,4,3,4,2,5,2,5,1,6,1,6,8,7,8,7,
{16}1,8,3,6,2,4,8b,,,,1,2,3,,18,,
{16}57,,58,,51,,52,,41,,38,,27,,1/6^3[8:1],,
{16},,,8b,,,,,,,,,,,,,
{16}4>5[1:3]/5,,,,,,,,,,,,,,,,
{16},,,,,,,,,,,,,,,,
{16},,,,,,,,,,,,,,,,
{16},,,,,,,,,,,,,,,,
{16}3-6[2:1],,,,,,,,,,,,,,,,
{16}7-2[2:1],,,,,,,,,,,,3,,3,,
{16}4bqq1[8:4]*pp7[8:4],,,,,,,,,,,,,,,,
{16}2h[8:1]/8h[8:1],,,,28,,1h[8:1]/7h[8:1],,,,17,,26,,37,,
{16}48,,,,1b,,,,3,4,{16}3,4,2,5,2,5,
{16}1-6[8:1],,,,1/7,,5>8[4:1],,,,8p3[4:1],,,,3p6[4:1],,
{16},,6>2[16:3]*<2[16:3],,,,,,,,,,5qq1[8:3]/3,,6,,
{16}5^8[8:1]/7,,,,,,,,2-4[8:1],,6-8[8:1],,2-6[8:1],,6V41[4:1],,
{16}2,,,,8,,8,,2,5,3,4,1,5,8,6,
{16}1^4[8:1],,4,,5/1b,,7,,1^6[8:1],,6,,5/1b,,3,,
{16}1q6[8:1],,4,,1b/5,,7,,1p4[8:1],,6,,1b/5,,2,,
{16}13,,2,,68,,7,,41,,3,,85,,6,,
{16}1/4,,{24}3,4,5,{16}6,,{16}1h[4:1]/8b,,,,{24}4,3,2,1,8,7,6,5,4,
{16}1w5[8:1]/3,,,,1b,,,,73,,7-4[8:1]/3-8[8:1],,,,,,
{16},,,,,,,,,,,,,,,,
{16}3bqq4[8:3],,,,,,,,7bqq8[8:3],,,,,,,,
{16}1,,2,3,4,,1b/8b,,6,,6,3,7,4,8,5,
{16}1>5[8:1],,,,1qq7[8:1]/8,,,,2/1>5[8:1],,,,81,,,,
{16}7<3[8:1]/6,,,,7pp1[8:1]/8,,,,6/7<3[8:1],,,,87,,,,
{16}2-6[8:1],,2,,4-7[8:1],,4,,8v3[8:1],,8,,1-6[8:1],,1,,
{16}4,,3>6[4:1],,42,,3/1h[4:1],,,,,,8,4,8,4,
{16}2^5[8:1],,81,,6p2[8:1]/2,,8,,67,,,,4-8[8:1]/1,,5,,
{16}2^7[8:1]*v5[8:1]/4,,1,,2,,,,4v7[8:1]/6,,3^8[8:1],,4,,3,,
{16}6-3[8:1],,7-2[8:1],,6,,7,,4-7[8:1],,1-6[8:1],,4,,1,,
{16}8,,5>6[4:1]/7,,36,,5/1h[4:1],,,,,,2,5,3,5,
{16}4-7[8:1],,6,,4^1[8:1]/7^4[8:1],,1,,47,,,,5-2[8:1],,3,,
{16}5^8[8:1]/2^5[8:1],,8,,52,,,,51,4,3,2,16,7,8,1,
{16}6bqq3[2:2]/2bqq7[2:2],,,,,,,,,,,,,,,,
{16},,,,,,,,{32}1,2,3,4,5,6,7,8,1,,,,5,,4,,
{16}6b/3b>6[4:1],,,,3/1,,,,5p4[4:1],,4,,5/3,,,,
{16}1>6[4:1],,,,6,,7h[4:1],,,,8,,6-8[8:1]/1-5[8:1],,,,
{16}6b/1b,,,,1q5[8:1]/5^2[8:1],,,,1b/5b,,,,1s5[4:1]/4V61[4:1],,,,
{16},,,,,,84,73,62,,18,,{16}3>5[4:1],4,2,,
{16}1h[4:1]/3,,,,,,2-6[8:1],3,5-8[8:1]/4,,2,,5<3[4:1],,{24}4,3,2,
{16}1h[4:1]/5,,,,,,6-3[8:1],47,8-5[8:1],,6,,8>7[16:6],,2,,
{16}6h[4:1],,,,,,,,8,,1,,35,,,,
{16}7q5[8:3],,,,,,5<2[8:3],,,,,,2bqq6[1:2]*q5[1:2],,,,
{16},,,,,,,,,,,,,,,,
{16},,,,,,,,,,,,,,,,
{16},,,,,,,,,,,,,,,,
{16},,,,,,,,,,,,,,,,
