&title=yorugao
&artist=An & Ryunosuke Kudo
&first=-0.1
&des=⑨
&lv_5=14
&des_5=⑨
&inote_5=
(182){4},{8},,,,,,2/6,
{16}3-8[8:1],3,{8}5,6/3-1<8v3[8:5],,,{4}4h[2:1],
{8},,,,3/6,5,4,5,
7/3,{16}6-1[8:1],6,{8}4,3/6>5-1<8-6[8:7],,,{4}Ch[4:3],
,,{16},,{32}E1,B8/B1,B7/B2/Cf,B6/B3,{4}B5/B4,
{16}1,2,3-7[8:1],8,7,6,{8}3/5-1>2-6>5[4:5],,,{4}3h[2:1],
{8},,,,3,3,2,2,
2/7,{16}1-5[8:1],8,{8}1,8/1z5s1[8:7],,,{4}Ch[4:3],
{8},,,,,8/2,3-8[6:1]/7-4[6:1],{16}4,6,
{1}7>8-6>5-7[2:1]`3<4-2<1-3[2:1],
{24}2,3,8/4,7,{48}6/2,,,,,,,8/4,,,,,,,,,{4}6-1[8:1]/2-5[8:1],2/6,
7/3,B7/B2/B8/B1/E2/E8/B6/B3/E6/E4/D8/D2/C,{8}3h[4:1],6,5,4/3,
4h[4:1],3,2,5/1-6[8:1],6V82[16:3],1,,,{4}5-8[8:1]*-2[8:1],
5,{8}1-5[8:1],5-1[8:1],{4}1>6[4:1],
{8},8v7-1[4:1],,8,{4}1-6[8:1]*-4[8:1],B1f,
{8}6x/3x-5[8:1],2,3/7,6h[4:1],,1-3[8:1],8-4[8:1],7/1-5[8:1],
8,1-3[8:1],7-5[8:1],1-5[8:1],7-1[8:1],1-3[8:1],{4}7,
{8}4,5,2,7,,1/8,2,7/3,
6,5/2,{16}2,3,{8}4,5/6,7/4,8/3,1/2,
{4}8-5[8:1]/3-6[8:1],8/3,{8},8/2-5[8:1],7,2/6,
7,8/3,1-3<4[8:1],8<7-5[16:1],1-5[8:1],8-4[8:1],1,8,
{4}1w5[8:1],1,{8},5,4/6,2h[8:3]/7h[8:3],
,,,8/1,{4}7-4[8:1]/2-8[8:1],7/2-6[8:1],
{8}2,7,1-5[8:1],8-6[8:1],1-3[8:1],8,1-5[8:1],7-4-6[4:1],
1,7,1-5[8:1],8-6[8:1],1,8-4[8:1],1V38[4:1],8,
1,6-4[8:1],6,6/1-5[8:1],,1,8-4[8:1],1,
8,1,2/5,3,4/6,5,4/2,5,
7/6,{16}8,8,{8}7,1/6,,,2>5[8:1],1,
2,1<6[8:1],2,1,2>5[8:1],1,2,1<6[8:1],
2,1,2,3,,,2/5,{16}3,4,
{8}3,2/5,{16}3,4,{8}3,5/2-5[8:1],1,{4}2,
{16}1x,1x,1x-5[8:1],1x,{8}1x,1b,,,1>4[8:1],8,
1,1x<6[8:1],2,1,1x>4[8:1],8,1,1x-6[8:1],
2,1,2,3,,,3/6,{16}3,6,
{8}3,3/6,{16}3,6,{8}3V14[4:1],3/6,3,6>3[8:1],6,
{2}6/3<6[8:1],{12}3,5,1,7h[6:1],,C,
6,2,4,8h[6:1],,C,3,7,1,3p6[8:1],,C,
{2}6v3[8:1],{12}7,1,5,2,8,C,
5,3,7,1,5,C,8-4[8:1],2,6,8x/4<7[8:1],,,{2}8<5[8:1],
{12}2,4,8,6h[6:1],,C,
5,1,7,3h[6:1],,C,2,8,4,6h[6:1],,C,
7,5,6,2,4,3,6,5,7,3,4,2,
8,6,7,1,3,2,7,8,6,2-4<5[8:1],1,3,
{2}5-1[8:1],{12}2,8,4,6h[6:1],,C,
7,3,1,5h[6:1],,C,2,6,4,2q7[8:1],,C,
{2}7v2[8:1],{12}6,4,8,3,5,C,
8,2,6,4,8,C,5-1[8:1],3,7,5x/1<6[8:1],,,{2}5<8[8:1],
{12}3,1,5,7h[6:1],,C,
8,4,6,2h[6:1],,C,3,5,1,7h[6:1],,C,
6,2,8,5,7,1,4,2,6,8,5,3,
1,4,6,8h[12:1],5h[12:1],2h[12:1],6h[12:1],4h[12:1],8h[12:1],3h[12:1],1h[12:1],6h[12:1],
{4}8bh[8:7],{16},,,,,,,,E8,E7,E6,E5,
{8}Ch[1:2],{16},,,,,,,,,,,,E3,E4,
{1}E5,
{2}B6/B2,C/E1/E5/B6/B7/B2/B3,
{1}5h[1:1],
{2}4h[2:1],6h[2:1],
3h[2:1],4h[2:1],
{4}5h[4:1],6h[4:1],7h[4:1],8h[4:1],
1,7x/1-5[8:1],6x,2x/8-4[8:1],
3x,6x/1-4[8:1],7x,2x/8-5[8:1],
1x,6x/8-3[8:1],{8}7x-4[8:1],7,1x-5[8:1],1,
8x-6[8:1],8,2x-5[8:1],2,7x-4[8:1],7,1x-5[8:1],1,
8x,8,7/1x,7,6/2x,6,5/3x,5,
5/4x,4,3/7x,3,2/6x,2,1/5x,1,
{16}2,8,2,8,2,8,2,8,3,7,3,7,3,7,3,7,
4,6,4,6,4,6,4,6,5,5,5,5,5w1[4:3],5,5,5,
{1}5b,
{24}1,8,1,8,{96},,,,,,,,,,,,,,{32}2/7,6/3,,,,,3/6,4/5,,,,,,,{8}1-7p4[4:3],2,
{4}3/1,2,{8}1-4-1[4:1],8,{4}1x,
{8}6pp5[8:3],8,{4}6x/1,{8}2,3,6/4-8[8:1],5,
{4}6/4x,1/7h[1:1],{8},3<5[8:1],{4}3,
{8},4,{4}4-1[8:1],{8}4x/8,7,6/3,2,
5/1-5[8:1],8,1/7-4[8:1],8,7/3-1[8:1],2,3/8-6[8:1],6-1[8:1],
8/3-5[8:1],4,3-1[8:1],7-5[8:1],3-5[8:1],7,3,7,
{16}6x,5,{8}6,7/4,{16}5,6,{8}5qq2>5[2:1],7/4,{4}5b,
{8},,7,6,{16}5,6,4,5,3,4,{8}3,
{16}2x/6x,3/7,{8}8/4,{16},,2x/6x,3/7,{4}4/8x<2[4:1],Cf,
{8},6/1,2,3/7,6,1/5,2,3/5,
{16}5x/4h[8:1],6,{8}7h[4:1],{16},,5x,4,{4}7h[4:1]/3>5[4:1],Cf,
{8}1x,8/2h[8:3],{4}7-4[8:1],7,{8}3/6,4,
5/7,6,5/3,4,5h[4:1]/2-5[8:1],1,{4}2x,
{8}8-4[8:1]/2-5[8:1],1,{4}8/2,6h[4:1],{8}3,2,
7/1,6,5/1,{16}5x/1x,2/6,{4}3/7qq4[8:5],{16}3x/7x,2,{8}1,
{16},,,,2,2,{48},,,,,,{12}1h,5,3h,7,5,3h,
{8}8b/1h,7-3[8:1],6/3-7[8:1],7,{16},,,,3,4,3,5,
4,6,5,7,5,6,4,5,3,5,2,4,2,5,1,6,
{8}2,3-8[8:1],2/8-5[8:1],3/7,{16},,,,2,1,2,8,
1,7,8,7,1,8,2,1,2,8,{24}B2f,Cf,B6f,,,,,,,{8}1/8,
2-5[8:1],3/5-8[8:1],2/6,{16},,,,6,5,6,4,
5,3,4,2,4,3,5,4,6,4,7,5,6,4,6,5,
{8}7,5/8-5[8:1],7/5-1[16:1],8,{16},,3,4,3,5,4,6,
5,7,7,6,7,5,6,4,5,3,4,2,2,1,2,8,
{4}2-5[8:1]/7-5[8:1],7b/2b<1<8<7<6>5>4>3>2[4:9],{16},,,,,,,,,,B1,
E1,{4}B8,{16},C,{48},,,,,,,,,,,,,,{12}B7,
{4},,{16}2<2b[16:19],1<8<7<6>5>4>3>2<1[4:5],{8}8,{1},{16},{32},B6,
B7,B8,B1,B2,
B3,,,,,,,,,
||这是一个标记~
,
E
