&title=一冊のアロー
&artist=曲:堀江晶太 / 歌:櫻川めぐ
&first=0.49
&des=AsuminK
&lv_5=14
&inote_5=(153)
{8}6h[16:3]/4,,3h[8:1],4-6[8:1],,2,2,,3h[16:3]/5,,6h[8:1],5-3[8:1],,7,8,,
{8}6h[16:3]/4,,3h[8:1],4-2[8:1],,5,6,,3h[16:3]/5,,6h[8:1],5-7[8:1],,3,2,,
{8}1h[16:3]/6h[16:1],,5h[8:1],3V52[4:1],,6,7h[8:1],,8h[16:3]/3,,4h[8:1],6V47[4:1],,3,1h[8:1],,
{16}2h[16:3]/8,,,5,3h[16:3],,,7,4h[16:3],,,1,5qq1[2:1],,5,,8h[8:1],,,7h[8:1],,,{8}6h[4:1],,2,3/4,5,
{16}1/6,,7,8h[16:3],,,{8}5V36[4:1],,1,2h[8:1],,{16}8/3,,2,1h[16:3],,,{8}4V63[4:1],,1,8,7,
{16}6/2,,3,4,2h[8:1],,1,,3/8,,7,5,6,4,5,,2,4h[8:1],,3,5h[8:1],,8,6h[8:1],,4,{8}7h[8:1],5pp1[8:3],4,
{8}3h[4:1]/Cf,,,{16}2,2h[16:3],{8},8,7/3,6,5/4-8[8:1],3,2,{16}1,1h[16:3],{8},7,2/6,2,
{8}3/4-8[8:1],5,6,{16}7,7h[16:3],{8},1,2/6,3,4/5-1[8:1],6,7,{16}8,8h[16:3],{8},2,7b/3b,7b/3b,
{16}6V48[4:1],5,,,{8}3,2h[4:1],,1h[8:1],{16}3,3,,8/2>5[8:1],,,{8}5p1[8:1],,7h[4:1],,8,1/6h[8:1],,
{16}2>5[8:1],,,2,1<6[8:1],,,1,4p8[8:1],,,4,{8}7>5[8:3],{16}6,,6hx[8:1],,,7hx[8:1],,,{8}8xh[4:1],,5,{16}7/4,,6<3[4:1],5,
{8},6/3>6[4:1]
,,4h[4:1],,,{16}2/5,,3>6[4:1],4,,,{8}3/6<3[4:1],,5h[4:1],,,7-3[8:1],3-7[8:1],
{8}C,1,1h[8:1],5,{16}5h[16:3],,,4,6<4[16:5],,7/3,,{2}Cf[4:1],{16}6h[16:3]/5,,,7h[16:3],,,8h[8:1],,
{8}1V35[4:1],,1/5v2[8:1],{16}6,7,{4}8-3[8:1]*-4[8:1],E8/B8/E1,{8}5V71[4:1]/2,,5/1v6[8:1],{16}2,3,{4}4-7[8:1]*-8[8:1],E4/B4/E5,
{16}1/6,,2,4,,3,5,,4h[8:1]/6h[8:1],,,8h[8:1]/2h[8:1],,,{8}7<4[8:1]/3,,8,1,{16}2,4,3,,7,5,,6,4,,
{8}8,7/1,6/2,{16}3,4,{8}3V52[4:1],6,7,8,1,2/8,3/7,{16}6,5,{8}6V47[4:1],3,2,1,
{8}8,7/1,6/2,{16}3,4,{8}1-5[8:1],6-1[8:1],1<3[4:1],6,2,{16}2,1,8,7,6,5,4pp6[16:3]/8,,3,6<4b[16:5],4,,1bq5[8:1]*bq5[8:1]/E7f/B6,,
{8},,,{16}3,2,1/5qq3[16:3],,6,3>5b[16:5],5,,8bp4[8:1]*bp4[8:1]/E3f/B3,,{8},,,{16}6,7,8/4,,2,1,3,,7/4,,
{16}6<2[16:3]/5,,,2p5[8:1],6,,4,,3bh[8:1],,,6h[8:1]/2bh[8:1],,,{8}8bqq4[8:3]/7,,8/1,1,2,{16}3h[8:1],,5,5h[8:1],,7,7h[8:1],,
{16}8b,,6,1,6,1,5,2,4h[8:1],,3,3h[8:1],,8,2,1,5p7[16:3],,,7>5[4:1],5,,6h[4:1],,{4},{16}7,5,6,4,
{16}1pp5[8:3],,,8,1,,{8}5b>7[4:1],,6,{16}6pp4[16:5],5,4,,6,,,3,,,2,,1/5qq3[16:3],,6,3>5b[16:5],5,,8bp4[8:1]*bp4[8:1]/E3f/B3,,
{8},,,{16}6,7,8/4pp6[16:3],,3,6<4b[16:5],4,,1bq5[8:1]*bq5[8:1]/E7f/B6,,{8},,,{16}3,2,1/5,,7,8,6,,2/5,,
{16}3>7[16:3]/4,,,7q4[8:1],3,,5,,6bh[8:1],,,3h[8:1]/7bh[8:1],,,{8}1bpp5[8:3]/2,,1/8,8,7,{16}6h[8:1],,4,4h[8:1],,2,2h[8:1],,
{16}1b,,3,8,3,8,4,7,5h[8:1],,6,6h[8:1],,1,7,8,4q2[16:3],,,2<4[4:1]`,4,,3h[4:1],,{4},{16}2,4,3,5,
{16}8qq4[8:3],,,1,8,,{8}4b<2[4:1],,3,{16}3qq5[16:5],4,5,,3/8h[8:1],,,7h[8:1],,,6,,7,5,6,4,8>4qq4pp4<8b[4:7],1,7,,
{1}4bhx[4:7]/8bx,,
{8}7h[8:1],5,6/4,{16}3,4,,4,{8}1,2/8h[8:1],,2h[8:1],4,3/5,{16}6,5,,5,{8}8,E7/B6/E6,E3/B2/E2,
{16}3V51[4:1],4,,,{8}6,7h[4:1],,8h[8:1],{16}6,6,,1/7<4[8:1],,,{8}4q8[8:1],,2h[4:1],,1,8/3h[8:1],,
{16}7-4[8:1],,,7,8-3[8:1],,,8,5-1[8:1],,,5,{8}2<4[8:3],{16}3,,3hx[8:1],,,2hx[8:1],,,{8}1xh[4:1],,4,{16}2/5,,3>6[4:1],4,
{8},3/6<3[4:1]
,,5h[4:1],,,{16}7/4,,6<3[4:1],5,,,{8}6/3>6[4:1],,4h[4:1],,,2-6[8:1],6-2[8:1],
{8}C,8,8h[8:1],4,{16}4h[16:3],,,5,3>5[16:5],,2/6,,{2}Ch[4:1]f,{16}3h[16:3]/4,,,2h[16:3],,,1h[8:1],,
{8}8<4[4:1],2,8/4v7[8:1],{16}3,2,{8}1-5[8:1]*-5[8:1],2,B1,{16}8,7,{8}4>8[4:1]/6,7,4/8v3[8:1],{16}7,6,{8}5-1[8:1]*-1[8:1],4,B5,2,
{16}8/3,,7,5,,6,4,,5h[8:1]/3h[8:1],,,1h[8:1]/7h[8:1],,,{8}2>5[8:1]/6,,1,8,{16}7,5,6,,2,4,3,5,4,,
{8}7h[8:1],8,1/6V84[4:1],{16}5,4,{8}6,2,1h[8:1],3,2h[8:1],1,8/3V15[4:1],{16}4,5,{8}3,7,8h[8:1],6,
{8}7h[8:1],1,2/6,{16}3,4,{8}1h[8:1],8,{16}2/7,,,3x/6hx[16:3],,,2,4,3,5,4,7,5,,8,1,,,2b-6[1:7]/6b,,
{1},E1/B1/B8,
{1}B4/B3/E4,E8/B8/B7,
{8}3h[16:3],,,3h[16:3],,,3,,{8}8h[16:3],,,8h[16:3],,,8,,
{8}5h[16:3],,,5h[16:3],,,5,,{8}7h[16:3],,,5,
{16}4pp6[16:3]/8,,3,6<4b[16:5],,1,1bq5[8:1]*bq5[8:1]/E7f/B6,,
{8},,,{16}3,2,1/5qq3[16:3],,6,3>5b[16:5],,8,8bp4[8:1]*bp4[8:1]/E3f/B3,,{8},,,{16}6,7,8/4,,2,1,3,,7/4,,
{16}6<2[16:3]/5,,,2p5[8:1],6,,4,,3bh[8:1],,,6h[8:1]/2bh[8:1],,,{8}8bqq4[8:3]/7,,8/1,1,2,{16}3h[8:1],,5,5h[8:1],,7,7h[8:1],,
{16}8b,,6,1,6,1,5,2,4h[8:1],,3,3h[8:1],,8,2,1,5p7[16:3],,,7>5[4:1],5,,6h[4:1],,{4},{16}7,5,6,4,
{16}1pp5[8:3],,,8,1,,{8}5b>7[4:1],,6,{16}6pp4[16:5],5,4,,6/1h[8:1],,,2h[8:1],,,3,,2,4,3,5,1>4qq5<1b[2:3]*<6pp5>1[2:3],8,2,,
{1}1bx,,
{8}7h[8:1],3,1/8,{16}2,4,3,5,4,,4h[8:1]/7,,1,,2,5,4,5,3,4,2,5,1,,8pp3[8:5]/7qq4[8:5],8/7,,,7b/8b/Cf,,
{2},{8},,7/4h[8:1],1,2h[8:1],6,8/1,{16}7,5,6,4,5,,5h[8:1]/2,,8,,
{2}3bhx[8:5]/7bhx[4:3],{8},,2,6/2,{2}1bhx[2:1]/5bhx[8:5],{8},3V17b[8:1],4b/Ch[8:1],3b,
