&title=Oblivion: PHIN
&artist=Daily天利 vs. EndCat-终猫 ft. AiSS w/ 夜輪
&first=-0.236
&des=Aerchy
&lv_5=14+
&des_5=Aerchy
&inote_5=
(185){4},,,,{32}C,
B4/B8,E8/E4,A7/A3,{1},{4},,,{16},,{1}E3h[8:3]/B3h[4:3]/B2h[8:9]/8-5[2:3],
{2}C,E3h[4:1],
{1}E7h[8:3]/B6h[4:3]/B7h[8:9]/1-4[2:3],
{2}C,E7h[4:1],
{8}6b/B2h[4:1],,,B3h[8:1]/B1h[8:1],,,{4}Ch[4:1]/B4h[4:1]/B8h[4:1],
{8},B5h[8:1]/B7h[8:1],,,{2}2b/B6h[4:1],
{8}A7h[4:1]/A6h[4:1]/E7h[4:1],,,B7h[8:1]/B6h[8:1],,,{4}B3/B2/E3/Ch[4:1],
{16}2b-6[16:1],,,8b-4[16:1],,,{8}3b-7b[16:1],{16},5b-1b[16:1],,,{8}3>3[4:7],Cf,
{1},,{32}4bx-1b[8:5]/5bx-8b[8:5],
3/6,{16}2/7,,,,,,,,,,,,,,,{4}A2/D3/A3/A7/D7/A6/E3/E7,
B3/B2/E2/E6/B6/B7,B8/B1/B5/B4,Cf,
1/A5h[2:3],E5/2-7[8:1],2/E6,E5/1-4[8:1],
1/E6,{16}7/B5,,,8h[16:1]/E6h[16:7],,,{8}1/B5h[4:1],2h[8:1]/E5h[8:1],A5,
{16}B2,B3,{8}E4,{4}2/1,{16}B7,B6,{8}E6,7/8,5/4,
{16}1,8,2,7,3,6,4,5h[16:5],{2}Cf,
{4}8/A4h[8:15],E5/7-2[8:1],E4/7-5[8:1],7/B4,
{8}2/E4,8/B4,{4}6/E5,{8}2/E4h[8:3],8/B4h[4:1],{4}6h[8:1]/E5h[8:1],
{8}7,8-4[8:1],4-8[8:1],{16}3,2,{8}1,1-5[8:1],5-1[8:1],{16}6,7,
{8}8,8,{4}2b/7b,{32}1/5,2,3,4,5,6,7,8,1/5,2,3,4,5,6,7,8,
{8}1bx/B5h[1:2]/A5h[1:2]/E5h[8:1]/E6h[4:1],2b,{4}3b,E5/7-3[8:1],7/E6,
4/E5,6/E6,{8}8/E5,2/E6,E5/8-4[8:1],2/E6,
,,A4h[8:5]/B4h[16:9],7/E4,{4}1/E5,E4/2-6[8:1],
3h[8:7],{8}4,2,5,1,6,8,
3-7[8:1],5-1[8:1],3-1[8:1],5-7[8:1],3,5,4-8[8:1],5-1[8:1],
4-2[8:1],5-7[8:1],4,5,{16}4-8[8:1],3,{8}2/6-2[8:1],4,6,
{16}3b/C,,,4b/5,,,{8}5/6b,{16}7b/8,,,1/2b,,,{8}4b/5b,
{1}8-5[8:5]/1-4[8:5],
{8}7/1-5[8:1],2,3/1,4,4/8-4[8:1],{16}5,6,{8}8/7,6,
5/2-6[8:1],{16}4,3,{8}2/8-4[8:1],7,8,{16}3,2,{8}1,5/8,
{1}7-2[8:5]/6-3[8:5],
Cf,
{4}D5,{16}4,5,4,5,4,5,4,5,4,5,4,5,
3,6,4,5,3,6,4,5,2,7,4,5,1,8,3,6,
{4}4h[8:1]/B4,6h[8:1]/B6,3h[8:1]/B3,5h[8:1]/B5,
{8}Ch[4:3],B3h[8:5],{4}B6h[2:1],B4h[4:1]/B5h[4:1],B7/B8/B1/B2,
E3/B2/E2/A5h[1:3]/E5h[1:3]/E6h[1:3],{8}2,3,2,1,{4}2-7[8:1],
2b,{8}6,7,8,7,{4}6-1[8:1],
6b,{16}B3,B2,B1,B8,{8}B7,{16}C,B1,{4}A1fh[4:1]/E2h[4:1]/E1h[4:1],
,,,,4b/5b,
2/1,7b/8b,{8}2-6[8:1]/1-5[8:1],{16}4x/7x,3x/8x,
{4}2bx/1bx,4/3,6b/5b,{8}7-3[8:1]/8-4[8:1],{16}5x/2x,6x/1x,
{4}7bx/8bx,1/8,4b/3b,6/5,
{8}3b-7[8:1]/4b-8[8:1],{16}1x/6x,2x/5x,{4}3x/4x,{8}6b-2[8:1]/5b-1[8:1],{16}8x/3x,7x/4x,{4}6x/5x,
{8},4/3,{16},,5x/2x,6x/1x,{4}8bx/7bx,6/5,
{16}1bx-5[8:1]/2bx-6[8:1],3x/8x,{8}4x/7x,{4}2/1,{16}8bx-4[8:1]/7bx-3[8:1],6x/1x,{8}5x/2x,{4}7/8,
{2}E5h[1:2],B4h[2:3],
B5h[1:1],A5h[2:1]/A4h[2:1],
{1}D6/B6/C/D4/B3,
C,
{4}8b/7b,6b/1b,5b/2b,{16}4b-8b[8:1]/7b-3b[8:1],3bx/8bx,{8}2bx/1bx,
{4}4b/7b,5b/6b,2b/1b,{16}2b/5b-3b[8:1],6bx/1bx,{8}7bx/8bx,
5b/2b,2,6/2b,2,7/3b,3,{16}3b,8b,{8}3b,
4/7b,7,7b/3,7,6b/2,6,{16}6b,1b,{8}6b,
5/2b,5b/2,{4}5/2b,4/7b,4b/7,
{8}3/6b,6/3b,{4}3/6b,{8}5/4,5/4,{16}3,6,2,7,
{1}1/8,
{4},,,,5h[2:1]/1h[2:1],
,,8V64[4:1],
{16}4V28[4:1],A7,A6,A5,8V64[4:1],A3,A2,A1,4V28[4:1],A7,A6,A5,8,A3,A2,A1,
{4}4h[2:1],1h[4:1],,1V35[4:1],
{16}5V71[4:1],A2,A3,A4,1V35[4:1],A6,A7,A8,5V71[4:1],A2,A3,A4,1,A6,A7,A8,
{4}5h[2:1],{16},,,,,,,,4/8,5,6,7,
8/4,1,2,3,4/8,5,6,7,8/4,1,2,3,4/8,5,6,7,
{4}8/4,6h[4:1],B4h[4:1],2h[4:1],
,B1h[4:1],5h[4:1],{8}4,6,
7/3,6,5/2,3,{16}7,5,6,5,8,4,5,4,
1,3,4,3,8,4,5,4,7>1[8:1],5,{8}6,{4}4b,
{8}7x/3x,6,5/2,3,{16}2,4,3,4,1,5,4,5,
8,6,5,6,1,5,4,5,2,4,3,4,1,5,4,5,
{4}Ch[8:1],{8}6/3,5,{16}3,4,3,4,{8}3,{16}5,6,
{8}5,4,{16}5,4,5,4,{4}6h[4:1],B5/B4,
{16}6h/5h,,,5h/4h,,,{8}4h/3h,{16}2h/1h,,,1h/8h,,,{8}8h/7h,
{16}5,5,{8}5,{16}4,4,,3,{8}3,{16}4,4,{8}4,5,
{16}6,6,{8}6,{16}5,5,,4,{8}4,{32}3,2,1,8x,7x,6x,5x,4x,3x,2x,1x,8x,
{1}7/6,
B6/B7,
B3/B2/B6h[4:7]/B7h[4:7],
B3h[4:3]/B2h[4:3],
{8}6h[8:5],,,,,4h[4:1],,5h[4:1],
,3h[16:9],{16},,,,,,,5h[32:11],{48},,,,,,,,{12}E6,
{96},,,{32}4h[32:11],,,,,,,{8}E4,6h[8:5],,3,2,1,
{1}Ch[4:3],
{4}7h[2:1],B4h[2:1],B3,B8h[2:1],
{2}2h[2:1],6h[2:1],
{4}4h[2:1],B8h[2:1],B7,B3h[2:1],
5h[2:1],,,3h[4:1],
B5h[2:1],B4,2h[4:1],E8h[4:1],
{2}5h[2:1],1h[2:1],
{1}A2h[1:2]/A3h[1:2],
A6h[1:1]/A7h[1:1],
{2},1h[2:1],
{8}2h[8:3],,,3h[8:3],,,{4}4h[16:5],
{16},5h[4:1],,,,6h[16:3],,,7h[16:3],,,8h[16:3],,,{8}1h[8:1],
2h[8:1],3h[8:1],4h[8:1],5h[8:1],{16}6,7,8,1,{32}2,3,4,5,6,7,8,1,
{1}2/3,
{2},,,,,Cf/D6/D5/D4/D3/D2/D1/A8/A7/A6/A5/A4/A3/A2/A1/D7/E2/E4/B4/E5/B5/E6/B6/E7/B7/E8/E1/B8/B1/B2/B3/E3/D8,
{32}6b/1b,5/2,{16}4/3,,,{4}E4/B3/B2/E2,{16}A3h[1:1]/D3h[1:1]/A2h[1:1],,,,,E4,,,E3,
,,E2,,,{8}E3,{4}Cf/1-5[8:1],1/8,
{32}3b/8b,4/7,{16}5/6,,,{4}E6/B6/B7/E8,{16}A6h[1:1]/D7h[1:1]/A7h[1:1],,,,,E6,,,E7,
,,E8,,,{8}E7,{4}Cf/B6/B7,8/5,
{32}4b/7b,3/8,{16}2/1,{32},,,,E4,B3,B2,E2,{8}C,{16}D3h[16:11]/A3h[16:11]/A2h[16:11],,,,,E2,,,E3,
,,E4,,,{8}E3,{2}Cf/4-8[8:1],
{6}1/2h[6:1],1h[6:1],8h[6:1],7h[6:1],{12},,1/8,1/8,
{6}2/7,2-5[4:1]/7-4[4:1],{4},,{16},,{64},,{96},{32}5b/2b,
1/6,{16}7/8,,,B5,B6,{8}B7,{2}A6h[4:1]/A7h[16:5]/D8h[8:3],
{12}6,7,8,7-3[8:1],6,7,{2}8,
{16}5h[16:3],,,4h[16:3],,,{8}3,{2}A4h[8:3]/A3h[8:3]/D3h[8:3],
{12}4,3,2,3-7[8:1],4,3,{16}2,,,8/6,,,{8}5/1,
{4}4b/2b,3h[8:3],{8},7q3[8:3]*p3[8:3],{16},5/1,,,{2}Cf,
{16}B2h[2:5],,,,,B7h[16:35],,,{2}B3h[1:2]/B6h[1:2],
Cfh[2:3],
{4},,,,,,,1b-5[8:1],
{8}1/8,7,6-2[8:1]/4-2[8:1],3/5,{4}4-8[8:1]/6-8[8:1],4/6,
{8}1b,5-1[8:1],3-1[8:1],5-7[8:1],3-7[8:1],5-1[8:1],3,5,
{16}2,,,1x/8x,,,{8}8/7-3[8:1],4-8[8:1],7-5[8:1],4,7,
1-5b[16:1],2,8,7,{16}4/8-4b[16:1],3,{8}2,{16}1/8,2,{8}3,
{16}6/3-7b[16:1],7,8/1,2,{8}3,5,{32}6-2b[16:1],7,8,2,3,4,,,{4}6/5,
{8}1-5b[16:1],3-5b[16:1],1-7b[16:1],3-7b[16:1],1b,3b,6b,8b,
{16}2h/7h,,,3h/6h,,,{8}5h/4-8[8:1],1/2,4/5-1[8:1],7,5/4,
{16}2,3,{8}4,8-4[16:1],{16}7-3[16:1],6,{8}5/8-2[16:1],7,8,{16}6,5,
{8}4x-8[16:1],{16}3-7[16:1],2,{8}1/4-6[16:1],3-1[16:1],4-8[16:1],3,4,{16}3,2,
{8}1x/8x,7/8,1-5[8:1]/8-4[8:1],2/1,1/8,A5h[4:1]/A4h[4:1],,,3/1-5[8:1],
2,{4}1/8h[8:1],{16}7,6,{8}5/3,{32}2,3,{16}4/5,{32},,,,8,
,,7,,,{16}1,{32},6,,,8,,,7,,,{16}1,2,6,{4}5bx,
{32}1,,,2,,,{16}8,{32},3,,,{16}1,3,4,3,6,5,{4}6bx,
{32}3/4,,,4/3,,,,,6/5,,,6/5,,,,,8/7,,,8/7,,,,,2/1,,,2/1,,,,,6/5,
,,5/4,,,{16}4/3,{32},2/1,,,{8}7/8,{16},,,,,,,,4,
5,{8}3,{16}5,4,{8}6,{16}3,4,{8}2,{16}6,5,7,8,
{32}1/2,3,4,5,6,7,8,1,{4}2h[32:3]/4h[32:3],{16}6b/Cf/B3/B2,,,3b/Cf/B6/B7,,,{8}7b/2b,
,,,,,,,,{1}2h[1:5]/C,
{2}B6,B7,
A6h[1:3],D6h[2:5],
E
