&title=真空都市
&artist=ナナツカゼ
&first=0.034
&des=-8Lufs
&lv_6=13+
&inote_6=(185)
{4},,,,1^4[2:1],,,,8^5[2:1],,,,2q4[2:1],,,,7p5[2:1],,,,3q4[2:1],,,,6p5[2:1],,,,4qq4[2:1],,,,5pp5[2:1],,4-1[2:1],,5h[2:4],,
{64}B5,E6,,,,,,,,,,,,,,,
{4},,,
{64}B3,B4,,,,,,,,,,,,,,,
{4},3h[1:2],,
{64}B4,E4,,,,,,,,,,,,,,,
{4},,,
{64}B6,B5,,,,,,,,,,,,,,,
{4},6h[1:2],,
{64}B7,E7,,,,,,,,,,,,,,,
{4},,,
{64}E3,B3,,,,,,,,,,,,,,,
{4},3h[1:2],,C,,,,E1,,8b,84,83,82,18,17,16,15,2/E5,2/E6,2/E7,2/E8,8/B1,8/B2,8/B3,
{8}8/B4,8x,8bx/4bx,,
{4}4/D1,4/D2,4/D3,4/D4,4/D5,4/D6,4/D7,4/8,73,26,15,48,
{16}15,,1,5,2,,2,,6,,6,,
{8}3,3,7,7,4,4,6,6,3,3,5,5,4,4,6,6,3,3,7,7,2,2,8,8,1,1,8,8,2,2,7,7h[16:1],
{8}3h[16:1],3h[16:1],6h[16:1],6h[16:1],2h[16:1],2h[16:1],7h[16:1],7h[16:1],1h[16:1],1h[16:1],8h[16:1],8h[16:1],1h[16:1],1h[16:1],8h[16:1],8h[16:1],
{16}1,8,1,8,1,8,1,8,1,8,1,8,1-5[12:1],8,1,8,1b,,,,,,,,5v2b[12:1]*v8[12:1],,,,,,,,
{8}7b^4[12:1],,71,,4x-8[12:1],3,4,,2^5[12:1],,82,,5x-1[12:1],6,5,,
7^4[12:1],,71,,4x-8[12:1],3,4,2^5[4:1],,5^8[4:1],,8^3[4:1],,5,5,,
7b^4[12:1],,71,2,4x-8[12:1],3,4,,2^5[12:1],,82,7,5x-1[12:1],6,5,,
7^4[12:1],,71,2,4x-8[12:1],3,4,2^5[12:1],,12,8,7,
{16}5,6,4,7,3,8,2,1,
{8}2bpp5[8:3],,5,5,6x-8[8:1]*^5-1[8:1],,6x,,7qq4[8:3],,4,4,3x-1[8:1]*^4-8[8:1],,3x,,
2pp5[8:3],,5,5,6x^5-2[8:1],,7,7-2[4:1],,2-5[4:1],,5-8[4:1],,1,1,,
2b^5[8:1],,6>1[16:3],7,8-4[8:1],,7,,
7^4[8:1],,3<8[16:3],2,1-5[8:1],,2,,
2^5[8:1],,6>1[16:3],7,8-4[8:1],,7,7,4x,4x,3x/5x,3x/5x,
{16}2bx,6,2bx,6,1bx,7,1bx,7,8bxw4[12:1],,,,8x,,,,6,,4,,28,,7,,4,,6,,71,,2,,5,,3,,64,,7,,2,,8,,35,,6,,1,,7,,28,,3,,5,,6,,71,,2,,35,,6,,71,,,,
{8}2h[4:1],4,7h[4:1],5,3h[4:1],4,6h[4:1],5,3h[4:1],2,4h[4:1],1,5h[4:1],8,6h[4:1],7,1-5[8:1],1,7-4[8:1],7,2-6[8:1],2,8-4[8:1],8,1^6[8:1],1,5,5,
{16}2,3,4,5,8,7,6,5,
{8}1b,2,53,6,1,7,28,3,6,4,57,8,2,8,35,6,1,7,28,3,6,4,57,8,1-5[8:1],1,8-4[8:1],8,2-5[8:1],2,82,,
7h[4:1],5,2h[4:1],4,6h[4:1],5,3h[4:1],4,6h[4:1],7,5h[4:1],8,4h[4:1],1,3h[4:1],
{16}2,,7,8,6,1,5,2,4,3,5,4,6,3,7,2,8,1,8b,,3,4,3,,5b/2b,,6,5,6,,7h[16:1]/3h[16:1],,8h[16:1]/2h[16:1],,
{48}1bx,2x/8x,7x/3x,6x/4x,5x<4-2-8-6[16:55],,,,,,,,
{4},,,,,,,C,,,,E5,,,,4>5[16:44],,,,E1,,,,C,,,,E5,,,,
{8}3/B1,3,3/B2,3,3/B4,3,3/B5,3,3/B6,3,3/B7,3,3/B8,3,3/B1,,61,6,62,6,63,6,64,6,65,6,67,6,68,6,61,,
61,2,38,7,61,2,38,7,64,3,25,6,74,3,25,6,
{16}1,7,1,7,2,8,2,8,3,1,3,1,
{32}3bx,4,5x,6,7bx,8,1x,2,3bxw7[16:10],,,,,,,,,,,,,,,,,,,,,,,,,,,,,,,,
{4}1b/5b,,,,
{8},B4,B6,B3,E6,B2,E8,E4,
{4}8bx,,,,
{8},E7,E6,E3,E4,Cf,,,
{8}4b/3b,2,56,7,35,1,64,8,34,2,45,2,65,1,75,1,56,8,34,1,46,8,35,1,65,7,45,7,43,8,42,,
7b-4[12:1]/1,7,3-8[12:1],3,6-1[12:1],6,2,2,8-6[12:1],4,8-2[12:1],4,8-6[12:1],4,8b,,2b-5[12:1],2,6-1[12:1],6,3-8[12:1],3,7,7,1-3[12:1],5,1-7[12:1],5,1-3[12:1],5,1b,,7b-5[12:1],7,3-1[12:1],3,7-4[12:1],7,2,2,7-5[12:1],1-3[12:1],7-3[12:1],1-5[12:1],7,1,7b,,2b-4[12:1],2,6-8[12:1],6,2-5[12:1],2,7,7,2-4[12:1],8-6[12:1],2-6[12:1],8-4[12:1],2>1[2:1],8,2b,,Cf,,,,53,6,71,2,5-1[8:1]/3,5,2-6[8:1],2,8-4[8:1],8,1,1,7qq4[2:1],7,1,1,2,2,3,,3qq8[2:1],3,5,5,6,6,7,,7-4[4:1],,4q1[4:1],4,,3,3,,2-5[4:1],,5p8[4:1],5,,6,6,,7h[4:1],8,1,2h[4:1],3,4,5h[4:1],4,3h[4:1],4,6h[8:1],5,
{16}4-8[12:1],5,4,,34,,,,
{8}2>6[2:1],,1,1,,8,8,,7qq4[2:1],,1,1,,2,2,,2V41^7[2:1],,5,5,,6,6,,5h[4:1],4,3,2h[4:1],1,8,7/3,,2-5[12:1],2,7-4[12:1],7,1-5[12:1],1,8-4[12:1],8,2-6[12:1],2,7-3[12:1],7,1-4[12:1],1,8,8,
{16}4x,5x,4x,5x,3x,6x,3x,6x,2,7,2,7,1,8,1bv7-5[16:24]*v3-5[16:24],
