&title=OUTER PLANETS
&artist=BEMANI Sound Team "劇団レコード"
&first=0.04
&des=KOL Charts Team "new"
&clock_count=4
&lv_5=14
&inote_5=(140)
{1},,
{48}1b/8b,2/7z3[8:8],3s7[8:8]/6,{8}4/5,,,,,,,,,,,,,,{16},,,
24,,3,,2h[16:3]/4,,,4,,4,,1,28,,,,
64,,5,,6h[16:3]/4,,,5,,5,,7,68,,1,,
24,,3,,2h[16:3]/4,,,4,,4,,1,28,,,,
64,,5,,6h[16:3]/4,,,5,,5,,7,1,1,8,8,
2h[8:2],,4,,6,,3,4,,5,4,,26,,7,,
8h[8:2],,5,,3,,6,5,,4,5,,73,,2,,
1h[8:2],,4,,6,,3,5,,7,5,,64,,7,,
8h[8:2],,5,,2,,6,4,,2,4,,1z5[16:6],8-4[16:5],2,7,
,,,,,,,,,,,,26,,,,
3h[16:3],,,4h[16:3],,,2,,1-5[8:1],,,,5,,,,
6h[16:3],,,5h[16:3],,,7,,8^5[8:1],,,,5,,,,
4h[16:3],,,2h[16:3],,,1,,8h[16:3],,,6h[16:3],,,5,,
2h[16:3],,,4h[16:3],,,5,,7-4[8:1]/5,,,,,,,,
2h[16:3],,,4h[16:3],,,1,,8^3[8:1],,,,7,,,,
6h[16:3],,,5h[16:3],,,7,,8-4[8:1],,,,4,,,,
2h[16:3],,,4h[16:3],,,1,,7h[16:3],,,5h[16:3],,,6,,
{96}5s1[8:2],3-7[8:2],,,,,{16},,,,,,,,,,,2b/8b,,,,
65,,7,,64,,8,,73,,2,4,2,,15,,
6-4[8:1],,7,,3-6[8:1],,2,,7-3[8:1],,8,,2,,2,,
18,,7,5,6,,54,,43,,2,1,2,,18,,
73,,5,,26,,1,7,8-5[16:2],,,,1,,2,,
34,,2,,35,,1,,26,,7,5,7,,84,,
2-4[8:1],,1,,5-2[8:1],,6,,1-5[8:1],,8,,6,,6,,
81,,2h[8:1],4,,3h[8:1],5,,64,,7h[8:1],5,,6h[8:1],8,,
17,,3,5,4,6,2,7,{24}1,8,1,8,1,8,{16}27,,27,,
1b,1-5[8:1],,24,,1,,7,7h[8:2],,,,1,,{24}2,3,4,
{16}8,8-4[8:1],,65,,8,,3,3,,25,,16,,{24}6,7,8,
{16}2,2,,17,,64,,5,
3h[16:1],4h[16:1],2h[16:1],1h[16:1],3h[16:1],4h[16:1],2h[16:1],1h[16:1],
3,4,,25,,7,7,7,1h[8:1],,3h[8:1],,5h[8:1],,7,,
8b/1b,8-4[8:1]/1,,75,,84,,3,2h[8:2],,,,8,,{24}7,6,5,
{16}1,1-5[8:1],,34,,1,,6,6,,74,,83,,{24}3,2,1,
{24}5,4,3,2,1,8,4,3,2,1,8,7,3,2,1,8,7,6,2,1,8,7,6,5,
{16}1h[8:1],,5h[8:1],,7,,36,,
{24}2,1,2,7,8,7,2,3,4,8,7,6,
{16}1b/5-1[8:2],,,,,,,,,,,,1/8,,,,
{16}28,,{24}2,3,4,{16}65,,78,,{24}7^4[8:1],8,1,{16}2,,{24}3,2,1,8,,,
{16}2-6[8:1],,6,6,2,,8,8,{32}2,3,4,5,6,7,8,1,{16}26,,8,,
{16}71,,{24}7,6,5,{16}34,,21,,{24}2^5[8:1],1,8,{16}7,,{24}6,7,8,1,,,
{16}7-3[8:1],,3,3,7,,1,1,{32}7,6,5,4,3,2,1,8,{16}73,,1,,
{16}2h[8:1],,{24}4,5,6,{16}1h[8:1],,{24}8,7,6,{16}2,4,3,4,1,6,2,4,
{24}1,8,7,6,5,4,8,1,2,3,4,5,{16}1,6,2,7,3,8,2,7,
1^4[8:1],,8,8,1/7-3[8:1],,6,,7/1-5[8:1],,2,2,16,,7,,
1,5,3,4,8,6,2,4,{24}1,8,1,8,1,8,{16}2b/7b,,,,
{16}71,,{24}7,6,5,{16}34,,21,,{24}2^5[8:1],1,8,{16}7,,{24}5p1[8:1],6,7,8,,,
{16}7^4[8:1],,8,,7^2[16:2],,1,,{24}3,4,5,{16}6,,{24}84,37,26,15,,,
{16}28,,{24}2,3,4,{16}6/5,,78,,{24}8^5[8:1],1,2,{16}3,,{24}5q1[8:1],4,3,2,,,
{16}3-7[8:1],,2,,3,,1,,{32}6,5,4,3,2,1,8,7,{16}62,,8,,
{16}7h[8:1],,{24}5,4,3,{16}8h[8:1],,{24}1,2,3,{16}7,5,6,5,8,3,7,5,
{24}8,7,6,4,3,2,
7,6,5,3,2,1,
7,6,5,4,3,2,8,7,6,5,4,3,
{16}8,2,6,6,3,5,1,1,7,4,6,6,1,8,27,,
{24}7b/8b,6,5,4,,,2b/1b,3,4,5,,,7b/8b,61,52,43,,,2b/1b,38,47,56,,,
{16}2b-5[8:1],,3/5-1[8:1],,27,,6,6^1[8:1],,8,,6,2,3,4,,
7-4[8:1],,6/4-6[8:1],,72,,3,1^4[8:1],,8,,1,7,6,5,,
2b-4[8:1],,5/4-1[8:1],,27,,6,6^1[8:1],,8,,6,2,3,4,,
8-4[8:1],,6/4-7[8:1],,85,,3,2^5[8:1],,1,,2,8,7,6,,
2b/1b,,54,,87,,2b/6b,4b/7b^4[8:1],,,,,{32}3b,2b,1b,,,,,,
{16}7b/8b,,45,,12,,2b/6b,4b/8b^5[8:1],,,,,{32}4b,3b,2b,1b,,,,,
{16}5h[16:1]/6h[16:1],,5h[16:1]/6h[16:1],,5h[16:1]/7h[16:1],,5h[16:1]/8h[16:1],,
8h[16:1]/4h[16:1],,8h[16:1]/3h[16:1],,8h[16:1]/2h[16:1],,8h[16:1]/1h[16:1],,
2,2,5,5,4,4,7,7,1,1,6,6,3,3,8,8,
2,,{32}1/7,2,3,4,{16}5h[8:1],,7,,8,,12,12,12,,37,,
1h[16:3],,,7,8/7,,4,4,5V31[16:3]/6V41[16:3],,12,,56,,,,
8,,{32}8/2,7,6,5,{16}4h[8:1],,2,,1,,87,87,87,,62,,
8h[16:3],,,2,1/2,,5,5,4V61[16:3]/3V58[16:3],,78,,43,,,,
2b/4b,,,7b/8b,1b/6b,,7b/4b,,,3b/8b,1b/2b,,{24}7b,6,5,1b,2,3,
{16}8b/4b,,,,,,,,
{48}1b/8b,27,36,{8}4z8[8:18]/5s1[8:18],,,,,,,,,,,,,,{16},,,
