&title=Old Gold
&artist=Cranky
&first=0
&des=KuSA
&lv_5=12+
&inote_5=(155)
{1}
,,8b,,,,
{8}
7/1-5[8:1],,7,,6/5-2[8:1],,6,,8/7<4[8:1],,8,,2/4,,7/3,,
{16}6,5,7,,3,4,2,,7,5,6,,2,4,3,,6,5,7,4,8,2,7,1,5,3,6,4,8-4[8:1],,,,
8b<5[8:1]*>3[8:1],,,,8w4[8:1],,,,8,,,,2/6,,1,,8/7,,6,,4/5,,3,,
2-5[8:1],,2,,1-6[8:1],,1,,5>2[8:1]*<8[8:1],,,,5,,,,4v1[8:1]/6v1[8:1],,4/6,,
,,,,3,4,2,,6,5,7,,3,4,2,5,1-5[8:1],,7,,1>4[8:1]*<6[8:1],,,,1w5[8:1],,,,1,,,,
7/3,,8,,1/2,,3,,5/4,,6,,7-4[8:1],,7,,8-3[8:1],,8,,4>1[8:1]*<7[8:1],,,,4,,,,
3/5,,4/6,,7/5,,8/6,,1b-5[8:14]/7h[8:7],,,,,,,,,,,,,,,,,,2,,,,6,,,,3,,,,
4,,4w8[2:1],,,,,,,,,,,,,,,,1-5[4:1]/8-4[4:1],,,,,,,,,,
5/6,,4/5,,3/4,,1b/2b,,3,,7/8,,6,,3,3,,4,4,,6,5,7-4[8:1],,3>8[8:1],,7,,3,,
5h[16:6],,1,,7,,3,,6/5,,7,,3/4,,2,,6,6,,5,5,,3,4,2-7[8:1],,6-3[8:1],,2,,6,,
1,1,,6,5,7,4,8,3b-1[8:1],,2,,3/4,,5,,3-8[8:1],4,,4,3,,5,5,3-1[8:1],,2,,
3/4-8[8:1],,5,,3/4,,2,,1b/6b,,,,5/6-8[8:1],,7,,6/5,,4,,2-4[8:1]/1,,3,,1/2,,8,,
7/5,,4/5,,2/4,,1pp4[4:1]/8qq5[4:1],1/8,,,,,,,,,
2-6[8:1],,1,,2,,7,,5>2[8:1],,5-1[8:1],,6,,,,2,,3/4,,6/5,,
7,8,6-2[8:1],,1,,3,,4,,5/8,,,5/8,,,5/8,,6,5,6,,3,4,3,,4/1,,,4/1,,,4/1,,
3,4,3,,6,5,6,,8<5[8:1],,2,,8,,4,4,5<8[8:1],,3,,5,,1,1,
8<5[8:1],,4,,8-4[8:1],,1,,8<5[8:1],,3,,2,,1,,8/5,,,8/5,,,8/5,,7,8,7,,2,1,2,,
1/4,,,1/4,,,1/4,,2,1,2,,7,8,7,,5b>2[8:1],,2<7[8:1],,5,,,,
3-8[8:1],4,5,,7,6,5,,8,,6,5,8,1,4,3,5-1[8:1],,1-5[8:1],,,,,,
3<6[8:1],,,3>8[8:1],,,3,,4,,5,,6/2,,7/1,,8<5[8:1],,,8>3[8:1],,,
8,,7,,6,,5/4,,3,4,1-5[8:1],,6,,1,,8,8,4>1[8:1],,1-5[8:1],,,,
6,7,8-4[8:1],,3,,8,,1,1,7<4[8:1],,4-8[8:1],3,2,,,,3h[16:6],,,8,,,4,,
3/4,,5/4,,6/5,,4/5,,2b-6[8:1]/8b,,1,,2/7-3[8:1],,8,,7/1w5[8:1],,8,,1,,,,
2-4[8:1]/6-8[8:1],,2/6,,2/6,,,,4p8[8:1]/8p4[8:1],,4/8,,4/8,,,,
8v2[8:1]/4v6[8:1],,8/4,,8/4,,,,2<7[8:1]/6>3[8:1],,2/6,,2/6,,,,
7-2[8:1],,7,,4-7[8:1],,4,,2,,2,,8/1,,7,3,5,4,6,2,5,4,7,3,8-4[8:1],,5,,1,,,,
1b<6[8:1]/2b>5[8:1],,,,1/2,,,,7<4[8:1]/8,,,,7/8,,1,,
4,3,4,2,5,3,5,2,6<1[8:1],3,6,2,6,,4,,8-4[8:1],7,6-1[8:1],,8,,6,,
2>5[8:1],,7,6,5>2[8:1],,7,,1b>8[8:4],,,,,,,,,,,,1-5[8:1],,,,
1b-3[8:1]*-7[8:1],,,,1w5[8:1],,,,1,,,,3/7,,5,4,6-1[8:1],,8/2-5[8:1],,6,,2,,
8V26[4:1],,2,,3/8,,4,,5>1[8:1]*p1[8:1],,,,5,,,,
8-5[8:1]/7-5[8:1],,7/8,,,,,,3,3,4,,6,6,5,,2,2,4,,8-4[8:1],8,5,,
8-2[8:1]*-6[8:1],,,,8w4[8:1],,,,8,,,,2/6,,4,5,3-8[8:1],,1/7-4[8:1],,3,,7,,
1-7[8:1],,7-3[8:1],,1/6,,5,,4<8[8:1]*q8[8:1],,,,4,,,,1/2,,2/3,,
3q4[4:2]/4<3[2:1],,3/4,,,,,,,,,,,,,,1q5[8:1]/5q1[8:1],,,,
1b-7[8:1]/5b-3[8:1],,,,1/5w1[8:1],,,,5,,,,4/6,,3,5,1-5[8:1],,2/6-8[8:1],,1,,6,,
4-2[8:1],,1-5[8:1],,4,,1,,3q1[8:1],,,,7q5[8:1],,,,2p4[8:1],,,,8,,7,,
6,5,7,8,6,1,5,5,3,4,2,1,3,8,4,4,5b-8[8:1]*-2[8:1],,,,5b,,,,
7b/4b,,2b/5b,,8b/4b,,1b/5b,,,,
3,8,2,7,1,6,2,7,3,8,2,7,1,6,8-4[8:1],,7,,6,,5,,3-7[8:1],,2,,1,,8h[8:3],,,,,,
1b,,,,2b,,{24}7,6,5,{16}4/2,,4/5,,5/7,,1,,2/4,,8,,1,6,3,7,4,5,5,,6/4,,
2/5,,1/7,,5/7,,3,4,2,,1/2,,3/8,,7/4,,8,,2/5,,1,,
6,2,7,3,5,4,4,,3/5,,7/4,,2/8,,2/4,,6,5,,7/8,,2/5,,4,
6b-8[8:1],,7,,6/5,,4,,6-1[8:1],5,,5,6,,4,,6-8[8:1],,7,,
6/5-1[8:1],,4,,6/5,,7,,8b/2b,,,,
4b,5,4,5,4,5,4,5,3b,6,3,6,3,6,3,6,2b,7,2,7,2,7,2,7,
{24}1b,8,1,8,1,8,{32}2,3,4,5p2[2:1],6,7,8,1,2b,,,,,
