&title=不潮不用花钱(High Fashion)
&artist=JJ Lin
&first=0.04
&des=LTC
&lv_5=13
&inote_5=(110)
{1},
(55)
{16},,,,,,,,,,,,,{32},
(111.99)
{4}4^6[8:1]*^6[8:1]/3,3,4^6[8:1]/3,3,4^6[8:1]*^6[8:1]/3,3,4^6[8:1]/3,3,
{8}5/4,4-2[8:1],,5-7[8:1],,4w8[8:1],,4b,
{16},,2,4,3,,6,5,7,,1,8,1,,27,,
2b-5[8:1]/8,,,,1/2,,,,2-5[8:1]/8,,,,6/2,,,,
28,,7,8,7,,2,1,2,,5,4,5,,36,,
{8}4/5,5-7[8:1],,4-2[8:1],,5-1[8:1],,4,3-6[8:1],3,8-4[8:1],8,1b,,27,4-6[8:1]/3,
43,,4^6[8:1],4,,4-7[8:1],3,3,4V61[8:2],,43,3^6[16:3],,23,2-6[8:1],1,
8-4[8:1],,5-1[8:1],5,,2qq5[8:6],,7,,7h[8:1],,6h[8:1],,6h[8:1],,6/4qq4[16:4],
4,,5qq5[8:2],5,,6qq5[16:3],6,7,8v3[8:1],,2pp5[8:3],2,,5,6-3[8:1],7,
8-4[8:1],,2-6[8:1],2,,7pp5[8:4]*p4[8:4],,7b,,,,,3h[8:1]/6h[8:1],,27,,
1/8-3[8:1],,7s3[16:4],7,,5-1[8:1],,2V48[8:2],,8-6[8:1],,5^2[8:1],,5/6V48[8:2],,4,
{16},,2,2,1,,7,7,8,,2,2,1,,81,81,
1h[8:1]/8h[8:1],,,,7h[8:1]/6h[8:1],,,,5h[8:1]/4h[8:1],,,,23,,,,
1v6[8:1]/8,,,,3v8[8:1],,3,,,,5v6[16:2],,,,4v2[8:1],,,,6v8[8:1],,,,2v1[8:1],,,,8,,,,
1V75[8:3]/8V24[8:3],,,,18,,,,,,,,,,2b/7b,,,,
{8}3-8[8:1]/1-6[8:1],,3/1,,5h[8:1]/4h[8:1],,1^4[8:1]/7h[8:1],,
1bq1[16:3]/5,,1/5,,2/5,,8^5[8:1]/2,,
8p8[16:3]/4,,8/4,,47,,1-5[8:1]/7,,
1/7h[8:1],,6,6-2[8:1]/5,,6p6[8:3]/5>7[8:3],,6b/5b,
,,,,5h[8:1]/4h[8:1],,1^4[8:1]/7h[8:1],,
1qq1[16:3]/5h[8:1],,1/5h[8:1],,2h[8:1]/5,,8^5[8:1]/2h[8:1],,
8pp8[16:3]/4h[8:1],,8/4h[8:1],,4/7h[8:1],,1-5[8:1]/7h[8:1],,
1>8[8:5]/7q1[8:5],,1b/7b,,,,,,
4h[8:1]/3h[8:1],,5h[8:1]/6h[8:1],,2h[8:1]/7h[8:1],,1b/8b,,
{16}27,,2,4,3h[8:1],,6,6,5-1[8:1],,7,7,5,,8,,
72,,7,5,6h[8:1],,3,3,4-8[8:1],,2,2,4,,1,,
27,,2,4,3h[8:1],,6,6,5V31[16:3],,7,7,5,,8,,
72,,7,5,6h[8:1],,3,3,4V68[16:3],,2,2,4,,1,,
27,,2,4,3,3,6,6,4-8[8:1],4,8-3[8:1],8,4,,7,,
6,,7,5,6,6,3,3,5-1[8:1],5,1-6[8:1],1,5,,2,,
3,,3,4,2,2,7,7,5-1[16:2]*-2[8:1],5,7,7,5qq6[8:4]*>7[8:4],,,,5b,,,,,,,,,,,,2b/7b,,,,
{8}2v5[8:1]/8,8,7/2,7,6h[8:1]/2^5[8:1],,2/6,7,
2-6[8:1]/8,8,2pp2[16:3]/7,7,6h[8:1]/2,,7,28,
7v4[8:1]/1,1,2/7,2,3h[8:1]/7^4[8:1],,7/3,2,
7-3[8:1]/1,1,7qq7[16:3]/2,2,3/7,2,1>4[8:1],8,
1q1[16:3]/7-4[8:1],,1/7,,7^4[8:1],2,1>4[8:1]/7,8,
1q1[16:3]/7-4[8:1],,1/7,,7^4[8:1],2,1>4[8:1]/7,8,
1q1[16:3]/7-4[8:1],,1/7,,7^4[8:1],2,1>4[8:1]/7,8,
7-3[8:1]/1,8,7/1w5[8:1],2,1b,,3^5[8:1]/7,,
3q3[16:3]/8,,3/6,,8-5[8:1]/2,,3^5[8:1]/8,,
3q3[16:3]/8,,3/6,,8-4[8:1]/2,,3/8qq1[8:7]*<1[8:7],,
8b,,,,,,,,
7h[8:1]/4h[8:1],,5h[8:1]/2h[8:1],,7-5[8:1]/5-1[8:1],,75,,
{4}4^6[8:1]*^6[8:1]/3,3,4^6[8:1]/3,3,4^6[8:1]*^6[8:1]/3,3,4^6[8:1]/3,3,
{8}4<2[8:12]*<2[2:3]/3h[8:2],,,3,,,4,4h[8:7],
