&title=OMG
&artist=Dopam!ne vs zEnsEn
&first=0.043
&des=JDJDH
&lv_5=13+
&inote_5=(128)
{4}
,,,,
{8}
4h[8:15],5,,5,,5,,5,,5,,5,,5,,5<4[8:9],
,4,,4,,4,,4,,,,,8w4b[8:1],,Cf,,
{24}
3x/5x<8[8:1],,,1,,,5,,3,,,2,1<6[8:1],,3,,,2,1x,,,4,,,
35,,3,5,,5,4,,4,6,,6,3,,3,,,5w1b[8:1],,,5,,,B5,
Cf,,,,,,7x,6x,5xV31[12:2],4x,,,
7,,5x,,,6,,,7,8,,6h[24:4],
5x,4x,3x,2x,,8,1,,7,4,,4<7[8:1],,,3,,,2/4x,,,1,1,,8,
{4}
2bv7b[8:1]*pp4b[8:1],,6bq3b[8:1]*pp8b[8:1],,
{24}
4bx/7bx,,6,5,,5,8,,8,1,,1-5[8:1],,,28,,,7-3[8:1],,,7,,,4x,
4x,,,2,,,15,,,2,,,4/3>8[8:1],,,,,5,3x,,,7,,,
6,,6,1,,1,8,,8,3,,3,5,,,7,,,1/3>6b[4:6],,,,,,
{4}
A3f/4h[8:31],,,,,,,,
{8}
,6,,6,,6,,6,
,6,,6,,6,,6,
4xh[8:1],6,4h[8:1],6,4h[8:1],6,4h[8:1],6,
4h[8:1],7x,4h[8:1],7,4h[8:1],7,4h[8:1],7,
5xh[8:1],7,5h[8:1],7,5h[8:1],7,5h[8:1],7,
6xh[8:1],7,6h[8:1],7-1q5b[8:2],B5/B6/E6f,,,,
2bV46[8:2]/6b,,82,1,2x,6x,8h[8:1]/5x,4,
3/7<3V57[8:5],,3,2,1,8,1,2,
3>7V13[8:5],,7,6,5,4,5,6,
{24}
7h[24:2],,5,6,,,2,,4,,,35,,,47,,,26,,,5h[24:3],4h[24:2],,,
4x-8b[8:1]/5x-1b[8:1],,,4x/5x,,,
{8}
4bx/5bx`Cf,,27,5x,1h[8:1]/4x,5,
6/2V46>2[8:5],,6,7,8,1,8,7,
6V82<6[8:5],,2,3,4,5,4,3,
5/2-5[8:1],1,2/7-3-6[8:3],8,
7x/3,2,1,8,
{24}
5h[8:1]/7h[8:1],,,,,5-2-8q4b[8:3]/7h[8:1],,,,,,,,,,,,,,,,,,,
5h[8:1]/3h[8:1],,,,,5-3v6p8b[8:3]/3h[12:2],,,,,,,,,,,,,,,2x,,,,
7h[8:1]/1h[8:1],,,,,7v4<6q3b[8:3]/1h[12:2],,,,,,,,,,,,,,,,,,,
4h[8:1]/2h[8:1],,,,,4pp6v1<7b[8:3]/2h[12:2],,,,,,,,,,,,,,,3x,,,,
25,,3,4,,1h[24:4]/5h[24:3],,,,,,,
74,,6,5,,7h[24:4]/3h[24:3],,,,,,,
38,,2,1,,4h[24:4]/8h[24:3],,,,,,,
61,,7,8,,6h[24:3]/2h[24:3],,,,,,,
{24}
E3,B3,B4,E7,B6,B5,
E2,B2,B3,E8,B7,B6,
{32}
E1,E2,E3,E4,E5,E6,E7,E8,D1,D2,D3,D4,D5,D6,D7,D8,
{4}
D1/Cf,
B1/B2/B3/B4/B5/B6/B7/B8,
A6/D7/A7/D8/A8/B8/C/B2/A2/D3/A3/D4/A4,
C/B2/A2/D3/A3/D4/A4/D5/A5/D6/A6/D7/A7/D8/A8/D1/A1,
{32}
1b,,,,,,,,
2x/A8,D8,A7,D7,A6,D6,A5,D5,
A4/D1,A1,D2,A2,D3,A3,D4,A4,
D5/A8,D8,A7,D7,A6,D6,A5,D5,
{24}
4xh[8:7]/8x,,,2,,,7,,1x,1x,,,6,,,8,,,7,,1x,1x,,,
26,,,,,,1x,B1,,7x,B7,,2x,B2,,8x,B8,,3x,B3,,6x,B6,,
1x,2x,3x,4x,,6,5,,8,1,,1<6[8:1],,,2,,,3/1x,,,4,4,,5,
{32}
8b,,,,,,,,
7x/A1,D2,A2,D3,A3,D4,A4,D5,
A5/D1,A8,D8,A7,D7,A6,D6,A5,
D5/A1,D2,A2,D3,A3,D4,A4,D5,
{24}
5xh[8:7]/1x,,,7,,,2,,8x,8x,,,3,,,1x,1x,,,,8x,8x,,,
7h[8:1]/3,,,2h[8:1],,,8x,B8,,1x,B1,,6h[8:1],,,3h[8:1],,,5x,B5,,4x,B4,,
7,,7,1,,1,8,,8,2,,2,7,,7,,,1w5[24:4],,,1,,,,
,,,,,,
{32}
3x/A5,D6,A6,D7,A7,D8,A8,D1,
A1/D5,A4,D4,A3,D3,A2,D2,A1,
D1/A5,D6,A6,D7,A7,D8,A8,D1,
{24}
2,,2,8x,,8x,3,,3,5,,5,
4w8b[8:1],,,5x/3x,,,Cf,,,,,,
{24}
26,,,,,,7x,E7,B6,1x,E2,B2,8x,E8,B7,2x,E3,B3,6x,E6,B5,3x,E4,B4,
8x,7x,6x,5x,,2,4,,1,8,,8>3[8:1],,,7,,,6/8x,,,5,5,,4,
{32}
1b,,,,,,,,
6x/A4,D4,A3,D3,A2,D2,A1,D1,
A8/D5,A5,D6,A6,D7,A7,D8,A8,
D1/A4,D4,A3,D3,A2,D2,A1,D1,
{24}
8xh[8:7]/4x,,,6,,,3,,5x,5x,,,2,,,4x,4x,,,,5x,5x,,,
6h[8:2]/2,,,3h[8:2],,,,E7,B7,,E3,B2,7h[8:2],,,2h[8:2],,,,E7,B6,,E3,B3,
8,,8,1,,1,6,,6,3,,3,5,,5,,,4<2b[4:7],,,4,,,,
{4}
D5f/3h[4:14],,,,,,,,
{8}
,2,,2,,2,,2,
,2,,2,1x-5b[8:1],,1,,
{24}
7b/4b,,6,5,,8bxh[24:4]/4bxh[24:3],,,,,,,
2b/5b,,3,4,,2bxh[24:4]/6bxh[24:3],,,,,,,
6b/1b,,7,8,,5bxh[24:4]/1bxh[24:3],,,,,,,
3b/8b,,2,1,,3bxh[24:3]/7bxh[24:3],,,,,,,
{12}
1x/2x,3,4,5x/6x,7,8,A1/B1/2x,3,4,A5/B5/6x,7,8,
{4}
1x/Cf,
B1/B2/B3/B4/B5/B6/B7/B8,
A5/D6/A6/D7/A7/B7/C/B1/A1/D2/A2/D3/A3,
2x-6b[8:1]*>1b[4:3],
{8}
2b`Cf,,,,,,5b,3b/7b,
{24}
6b/4b,,6,8,,8,1,,1,3,,3,5,,5,,,4w8b[8:1],,,4,,,B4,
Cf,,,,,,2x,4x-6<8b[106.66#36:5],3x,5x,,,
2,,4x,,,3,,,2,1,,3,
5x,4x,6x,5x,,1,8,,2,4,,4>1b[8:1],,,3,,,5/4x,,,8,8,,1x,
{4}
7bp2b[8:1]*qq5b[8:1],Cf,3bv6b[8:1]*qq1b[8:1],Cf,
{24}
5bx/2bx,,3,4,,4,1,,1,8,,8p4b[8:1],,,71,,,8x/2q6b[8:1],,,1,,,2x/5x,
5x,,,7,,,84,,,7,,,2/6v1b[8:1],,,18,,4x,6x,,,2,,,
3,,3,1,,1,8,,8,6,,6,4,,,37,,,1bq5b[8:1]/8bp4b[8:1],,,1b/8b,,,
{8}
1b/8b`E5f,,3q8[8:2]/6,2,1,2,4h[8:1],8,
7/3xV17>3b[8:5],,8x,6,4,2x,4,6,
7xV53<7b[8:5],,4x,2,8,6x,8,2,
{24}
3x,4x,5x,6x,,8,1,,7,4,,5<8b[8:1],,,3,,,2/5x,,,1,1,,8x,
{32}
2b-7b[8:1],,,,,,,,A2f,E3,B4,E5,A5,,,,6bv3b[8:1],,,,,,,,
{48}
A6f,D7,A7,D8,A8,D1,A1,,,,,,
{8}
4bV28>4b[8:5]/8b,,1,7,5,3,5,7,
{24}
5x/1<6[8:1],,,2,,,1/4>1[8:1],,,5,,,4x/7<4[8:1],,,8,,,27,,,3,,,
7x/1,2,3,4x/7x,,,8x/2,3,4,5x/8x,,,
5b-1[8:1]/6b-8b[8:1],,,1-4>2[8:2]/8-5p1b[8:2],,,5b/6b,,,E1f,,,
D5f,,,E
